  0
SECTION
  2
HEADER
  9
$ACADVER
  1
AC1015
  9
$ACADMAINTVER
 70
     6
  9
$DWGCODEPAGE
  3
ANSI_1252
  9
$INSBASE
 10
0.0
 20
0.0
 30
0.0
  9
$EXTMIN
 10
-5.0
 20
-2.619999999999891
 30
-76.97363477640508
  9
$EXTMAX
 10
9381.399435750398
 20
5070.926163757304
 30
42.0000000000003
  9
$LIMMIN
 10
0.0
 20
0.0
  9
$LIMMAX
 10
420.0
 20
297.0
  9
$ORTHOMODE
 70
     1
  9
$REGENMODE
 70
     1
  9
$FILLMODE
 70
     1
  9
$QTEXTMODE
 70
     0
  9
$MIRRTEXT
 70
     0
  9
$LTSCALE
 40
1.0
  9
$ATTMODE
 70
     1
  9
$TEXTSIZE
 40
2.5
  9
$TRACEWID
 40
1.0
  9
$TEXTSTYLE
  7
Standard
  9
$CLAYER
  8
0
  9
$CELTYPE
  6
ByLayer
  9
$CECOLOR
 62
     7
  9
$CELTSCALE
 40
1.0
  9
$DISPSILH
 70
     0
  9
$DIMSCALE
 40
1.0
  9
$DIMASZ
 40
2.5
  9
$DIMEXO
 40
0.625
  9
$DIMDLI
 40
3.75
  9
$DIMRND
 40
0.0
  9
$DIMDLE
 40
0.0
  9
$DIMEXE
 40
1.25
  9
$DIMTP
 40
0.0
  9
$DIMTM
 40
0.0
  9
$DIMTXT
 40
2.5
  9
$DIMCEN
 40
2.5
  9
$DIMTSZ
 40
0.0
  9
$DIMTOL
 70
     0
  9
$DIMLIM
 70
     0
  9
$DIMTIH
 70
     0
  9
$DIMTOH
 70
     0
  9
$DIMSE1
 70
     0
  9
$DIMSE2
 70
     0
  9
$DIMTAD
 70
     1
  9
$DIMZIN
 70
     8
  9
$DIMBLK
  1

  9
$DIMASO
 70
     1
  9
$DIMSHO
 70
     1
  9
$DIMPOST
  1

  9
$DIMAPOST
  1

  9
$DIMALT
 70
     0
  9
$DIMALTD
 70
     3
  9
$DIMALTF
 40
0.03937007874016
  9
$DIMLFAC
 40
1.0
  9
$DIMTOFL
 70
     1
  9
$DIMTVP
 40
0.0
  9
$DIMTIX
 70
     0
  9
$DIMSOXD
 70
     0
  9
$DIMSAH
 70
     0
  9
$DIMBLK1
  1

  9
$DIMBLK2
  1

  9
$DIMSTYLE
  2
ISO-25
  9
$DIMCLRD
 70
     0
  9
$DIMCLRE
 70
     0
  9
$DIMCLRT
 70
     0
  9
$DIMTFAC
 40
1.0
  9
$DIMGAP
 40
0.625
  9
$DIMJUST
 70
     0
  9
$DIMSD1
 70
     0
  9
$DIMSD2
 70
     0
  9
$DIMTOLJ
 70
     0
  9
$DIMTZIN
 70
     8
  9
$DIMALTZ
 70
     0
  9
$DIMALTTZ
 70
     0
  9
$DIMUPT
 70
     0
  9
$DIMDEC
 70
     2
  9
$DIMTDEC
 70
     2
  9
$DIMALTU
 70
     2
  9
$DIMALTTD
 70
     3
  9
$DIMTXSTY
  7
Standard
  9
$DIMAUNIT
 70
     0
  9
$DIMADEC
 70
     0
  9
$DIMALTRND
 40
0.0
  9
$DIMAZIN
 70
     0
  9
$DIMDSEP
 70
    44
  9
$DIMATFIT
 70
     3
  9
$DIMFRAC
 70
     0
  9
$DIMLDRBLK
  1

  9
$DIMLUNIT
 70
     2
  9
$DIMLWD
 70
    -2
  9
$DIMLWE
 70
    -2
  9
$DIMTMOVE
 70
     0
  9
$LUNITS
 70
     2
  9
$LUPREC
 70
     4
  9
$SKETCHINC
 40
1.0
  9
$FILLETRAD
 40
1.5
  9
$AUNITS
 70
     0
  9
$AUPREC
 70
     0
  9
$MENU
  1
.
  9
$ELEVATION
 40
0.0
  9
$PELEVATION
 40
0.0
  9
$THICKNESS
 40
0.0
  9
$LIMCHECK
 70
     0
  9
$CHAMFERA
 40
0.0
  9
$CHAMFERB
 40
0.0
  9
$CHAMFERC
 40
0.0
  9
$CHAMFERD
 40
0.0
  9
$SKPOLY
 70
     0
  9
$TDCREATE
 40
2458872.354042176
  9
$TDUCREATE
 40
2458872.270708843
  9
$TDUPDATE
 40
2460410.449689028
  9
$TDUUPDATE
 40
2460410.366355694
  9
$TDINDWG
 40
5.4838291782
  9
$TDUSRTIMER
 40
5.4838181019
  9
$USRTIMER
 70
     1
  9
$ANGBASE
 50
0.0
  9
$ANGDIR
 70
     0
  9
$PDMODE
 70
     0
  9
$PDSIZE
 40
0.0
  9
$PLINEWID
 40
0.0
  9
$SPLFRAME
 70
     0
  9
$SPLINETYPE
 70
     6
  9
$SPLINESEGS
 70
     8
  9
$HANDSEED
  5
619
  9
$SURFTAB1
 70
     6
  9
$SURFTAB2
 70
     6
  9
$SURFTYPE
 70
     6
  9
$SURFU
 70
     6
  9
$SURFV
 70
     6
  9
$UCSBASE
  2

  9
$UCSNAME
  2

  9
$UCSORG
 10
0.0
 20
0.0
 30
0.0
  9
$UCSXDIR
 10
1.0
 20
0.0
 30
0.0
  9
$UCSYDIR
 10
0.0
 20
1.0
 30
0.0
  9
$UCSORTHOREF
  2

  9
$UCSORTHOVIEW
 70
     0
  9
$UCSORGTOP
 10
0.0
 20
0.0
 30
0.0
  9
$UCSORGBOTTOM
 10
0.0
 20
0.0
 30
0.0
  9
$UCSORGLEFT
 10
0.0
 20
0.0
 30
0.0
  9
$UCSORGRIGHT
 10
0.0
 20
0.0
 30
0.0
  9
$UCSORGFRONT
 10
0.0
 20
0.0
 30
0.0
  9
$UCSORGBACK
 10
0.0
 20
0.0
 30
0.0
  9
$PUCSBASE
  2

  9
$PUCSNAME
  2

  9
$PUCSORG
 10
0.0
 20
0.0
 30
0.0
  9
$PUCSXDIR
 10
1.0
 20
0.0
 30
0.0
  9
$PUCSYDIR
 10
0.0
 20
1.0
 30
0.0
  9
$PUCSORTHOREF
  2

  9
$PUCSORTHOVIEW
 70
     0
  9
$PUCSORGTOP
 10
0.0
 20
0.0
 30
0.0
  9
$PUCSORGBOTTOM
 10
0.0
 20
0.0
 30
0.0
  9
$PUCSORGLEFT
 10
0.0
 20
0.0
 30
0.0
  9
$PUCSORGRIGHT
 10
0.0
 20
0.0
 30
0.0
  9
$PUCSORGFRONT
 10
0.0
 20
0.0
 30
0.0
  9
$PUCSORGBACK
 10
0.0
 20
0.0
 30
0.0
  9
$USERI1
 70
     0
  9
$USERI2
 70
     0
  9
$USERI3
 70
     0
  9
$USERI4
 70
     0
  9
$USERI5
 70
     0
  9
$USERR1
 40
0.0
  9
$USERR2
 40
0.0
  9
$USERR3
 40
0.0
  9
$USERR4
 40
0.0
  9
$USERR5
 40
0.0
  9
$WORLDVIEW
 70
     1
  9
$SHADEDGE
 70
     3
  9
$SHADEDIF
 70
    70
  9
$TILEMODE
 70
     1
  9
$MAXACTVP
 70
    64
  9
$PINSBASE
 10
0.0
 20
0.0
 30
0.0
  9
$PLIMCHECK
 70
     0
  9
$PEXTMIN
 10
15.0979381443299
 20
17.31672394043528
 30
0.0
  9
$PEXTMAX
 10
241.9020618556701
 20
177.6832760595647
 30
0.0
  9
$PLIMMIN
 10
11.8979381443299
 20
14.11672394043528
  9
$PLIMMAX
 10
308.8979381443299
 20
224.1167239404353
  9
$UNITMODE
 70
     0
  9
$VISRETAIN
 70
     1
  9
$PLINEGEN
 70
     0
  9
$PSLTSCALE
 70
     1
  9
$TREEDEPTH
 70
  3020
  9
$CMLSTYLE
  2
Standard
  9
$CMLJUST
 70
     0
  9
$CMLSCALE
 40
20.0
  9
$PROXYGRAPHICS
 70
     1
  9
$MEASUREMENT
 70
     1
  9
$CELWEIGHT
370
    -3
  9
$ENDCAPS
280
     0
  9
$JOINSTYLE
280
     0
  9
$LWDISPLAY
290
     0
  9
$INSUNITS
 70
     4
  9
$HYPERLINKBASE
  1

  9
$STYLESHEET
  1

  9
$XEDIT
290
     1
  9
$CEPSNTYPE
380
     0
  9
$PSTYLEMODE
290
     1
  9
$FINGERPRINTGUID
  2
{904878C0-6957-4577-8612-FB6076E7829B}
  9
$VERSIONGUID
  2
{EDC5F5B8-66B0-4530-9C98-803C2708DFE7}
  9
$EXTNAMES
290
     1
  9
$PSVPSCALE
 40
0.0
  9
$OLESTARTUP
290
     0
  0
ENDSEC
  0
SECTION
  2
CLASSES
  0
CLASS
  1
ACDBDICTIONARYWDFLT
  2
AcDbDictionaryWithDefault
  3
ObjectDBX Classes
 90
        0
280
     0
281
     0
  0
CLASS
  1
MATERIAL
  2
AcDbMaterial
  3
ObjectDBX Classes
 90
     1153
280
     0
281
     0
  0
CLASS
  1
SORTENTSTABLE
  2
AcDbSortentsTable
  3
ObjectDBX Classes
 90
        0
280
     0
281
     0
  0
CLASS
  1
PLOTSETTINGS
  2
AcDbPlotSettings
  3
ObjectDBX Classes
 90
        0
280
     0
281
     0
  0
CLASS
  1
VISUALSTYLE
  2
AcDbVisualStyle
  3
ObjectDBX Classes
 90
     4095
280
     0
281
     0
  0
CLASS
  1
SCALE
  2
AcDbScale
  3
ObjectDBX Classes
 90
     1153
280
     0
281
     0
  0
CLASS
  1
DICTIONARYVAR
  2
AcDbDictionaryVar
  3
ObjectDBX Classes
 90
        0
280
     0
281
     0
  0
CLASS
  1
ACDBPLACEHOLDER
  2
AcDbPlaceHolder
  3
ObjectDBX Classes
 90
        0
280
     0
281
     0
  0
CLASS
  1
LAYOUT
  2
AcDbLayout
  3
ObjectDBX Classes
 90
        0
280
     0
281
     0
  0
ENDSEC
  0
SECTION
  2
TABLES
  0
TABLE
  2
VPORT
  5
32
102
{ACAD_XDICTIONARY
360
60C
102
}
330
0
100
AcDbSymbolTable
 70
     1
  0
VPORT
  5
39
330
32
100
AcDbSymbolTableRecord
100
AcDbViewportTableRecord
  2
*Active
 70
     0
 10
0.0
 20
0.0
 11
1.0
 21
1.0
 12
1303.114680139528
 22
1066.375121032705
 13
0.0
 23
0.0
 14
10.0
 24
10.0
 15
10.0
 25
10.0
 16
0.0
 26
0.0
 36
1.0
 17
7759.205398603561
 27
2848.634770709328
 37
719.9022171068152
 40
819.0707726943059
 41
1.94
 42
50.0
 43
0.0
 44
0.0
 50
0.0
 51
0.0
 71
     0
 72
  1000
 73
     1
 74
     3
 75
     0
 76
     0
 77
     0
 78
     0
281
     0
 65
     1
110
0.0
120
0.0
130
0.0
111
1.0
121
0.0
131
0.0
112
0.0
122
1.0
132
0.0
 79
     0
146
0.0
1001
ACAD_NAV_VCDISPLAY
1070
     3
  0
ENDTAB
  0
TABLE
  2
LTYPE
  5
11
330
0
100
AcDbSymbolTable
 70
    25
  0
LTYPE
  5
12
330
11
100
AcDbSymbolTableRecord
100
AcDbLinetypeTableRecord
  2
ByBlock
 70
     0
  3

 72
    65
 73
     0
 40
0.0
  0
LTYPE
  5
13
330
11
100
AcDbSymbolTableRecord
100
AcDbLinetypeTableRecord
  2
ByLayer
 70
     0
  3

 72
    65
 73
     0
 40
0.0
  0
LTYPE
  5
14
330
11
100
AcDbSymbolTableRecord
100
AcDbLinetypeTableRecord
  2
Continuous
 70
     0
  3
Solid line
 72
    65
 73
     0
 40
0.0
  0
LTYPE
  5
50E
330
11
100
AcDbSymbolTableRecord
100
AcDbLinetypeTableRecord
  2
CENTER
 70
     0
  3
Center ____ _ ____ _ ____ _ ____ _ ____ _ ____
 72
    65
 73
     4
 40
50.8
 49
31.75
 74
     0
 49
-6.349999999999999
 74
     0
 49
6.349999999999999
 74
     0
 49
-6.349999999999999
 74
     0
  0
ENDTAB
  0
TABLE
  2
LAYER
  5
1
102
{ACAD_XDICTIONARY
360
2
102
}
330
0
100
AcDbSymbolTable
 70
    11
  0
LAYER
  5
7
102
{ACAD_XDICTIONARY
360
8
102
}
330
1
100
AcDbSymbolTableRecord
100
AcDbLayerTableRecord
  2
0
 70
     0
 62
     7
  6
Continuous
370
    -3
390
C
1001
AcAecLayerStandard
1000

1000

1001
AcCmTransparency
1071
 33554687
  0
LAYER
  5
525
102
{ACAD_XDICTIONARY
360
526
102
}
330
1
100
AcDbSymbolTableRecord
100
AcDbLayerTableRecord
  2
Defpoints
 70
     0
 62
     7
  6
Continuous
290
     0
370
    -3
390
C
1001
AcAecLayerStandard
1000

1000

1001
AcCmTransparency
1071
 33554687
  0
LAYER
  5
64
102
{ACAD_XDICTIONARY
360
65
102
}
330
1
100
AcDbSymbolTableRecord
100
AcDbLayerTableRecord
  2
1
 70
     0
 62
     7
  6
Continuous
370
    25
390
C
1001
AcAecLayerStandard
1000

1000

1001
AcCmTransparency
1071
 33554687
  0
LAYER
  5
50B
102
{ACAD_XDICTIONARY
360
50C
102
}
330
1
100
AcDbSymbolTableRecord
100
AcDbLayerTableRecord
  2
C
 70
     0
 62
     1
  6
CENTER
370
    15
390
C
  0
LAYER
  5
515
102
{ACAD_XDICTIONARY
360
516
102
}
330
1
100
AcDbSymbolTableRecord
100
AcDbLayerTableRecord
  2
D
 70
     0
 62
     4
  6
Continuous
370
    20
390
C
  0
ENDTAB
  0
TABLE
  2
STYLE
  5
17
330
0
100
AcDbSymbolTable
 70
    13
  0
STYLE
  5
18
330
17
100
AcDbSymbolTableRecord
100
AcDbTextStyleTableRecord
  2
Standard
 70
     0
 40
0.0
 41
1.0
 50
0.0
 71
     0
 42
2.5
  3
arial.ttf
  4

1001
ACAD
1000
Arial
1071
       34
  0
STYLE
  5
519
330
17
100
AcDbSymbolTableRecord
100
AcDbTextStyleTableRecord
  2
ISOCP
 70
     0
 40
0.0
 41
1.1
 50
0.0
 71
     0
 42
6.0
  3
ISOCP.SHX
  4

  0
ENDTAB
  0
TABLE
  2
VIEW
  5
30
330
0
100
AcDbSymbolTable
 70
     0
  0
ENDTAB
  0
TABLE
  2
UCS
  5
31
330
0
100
AcDbSymbolTable
 70
     0
  0
ENDTAB
  0
TABLE
  2
APPID
  5
5
330
0
100
AcDbSymbolTable
 70
    29
  0
APPID
  5
6
330
5
100
AcDbSymbolTableRecord
100
AcDbRegAppTableRecord
  2
ACAD
 70
     0
  0
APPID
  5
2A
330
5
100
AcDbSymbolTableRecord
100
AcDbRegAppTableRecord
  2
ACAD_PSEXT
 70
     0
  0
APPID
  5
51A
330
5
100
AcDbSymbolTableRecord
100
AcDbRegAppTableRecord
  2
ACAD_DSTYLE_DIMJAG
 70
     0
  0
APPID
  5
51B
330
5
100
AcDbSymbolTableRecord
100
AcDbRegAppTableRecord
  2
ACAD_DSTYLE_DIMTALN
 70
     0
  0
APPID
  5
3B
330
5
100
AcDbSymbolTableRecord
100
AcDbRegAppTableRecord
  2
ACAD_NAV_VCDISPLAY
 70
     0
  0
APPID
  5
15
330
5
100
AcDbSymbolTableRecord
100
AcDbRegAppTableRecord
  2
AcAecLayerStandard
 70
     0
  0
APPID
  5
16
330
5
100
AcDbSymbolTableRecord
100
AcDbRegAppTableRecord
  2
AcCmTransparency
 70
     0
  0
APPID
  5
2B
330
5
100
AcDbSymbolTableRecord
100
AcDbRegAppTableRecord
  2
PLOTTRANSPARENCY
 70
     0
  0
ENDTAB
  0
TABLE
  2
DIMSTYLE
  5
1C
330
0
100
AcDbSymbolTable
 70
    16
100
AcDbDimStyleTable
  0
DIMSTYLE
105
1D
330
1C
100
AcDbSymbolTableRecord
100
AcDbDimStyleTableRecord
  2
ISO-25
 70
     0
 41
2.5
 42
0.625
 43
3.75
 44
1.25
 73
     0
 74
     0
 77
     1
 78
     8
140
2.5
141
2.5
143
0.03937007874016
147
0.625
171
     3
172
     1
178
     0
271
     2
272
     2
274
     3
278
    44
283
     0
284
     8
340
18
  0
DIMSTYLE
105
518
102
{ACAD_REACTORS
330
52B
330
545
330
514
330
538
330
552
330
5A6
102
}
330
1C
100
AcDbSymbolTableRecord
100
AcDbDimStyleTableRecord
  2
Copy(2) of STANDRAD
 70
     0
 40
2.5
 41
2.5
 42
0.5
 43
7.0
 44
1.0
 73
     0
 74
     0
 77
     1
140
2.7
141
0.0
147
1.0
172
     1
176
   256
177
   256
271
     1
178
   256
271
     1
272
     1
340
519
1001
ACAD_DSTYLE_DIMJAG
1070
   388
1040
1.5
1001
ACAD_DSTYLE_DIMTALN
1070
   392
1070
     0
  0
ENDTAB
  0
TABLE
  2
BLOCK_RECORD
  5
20
330
0
100
AcDbSymbolTable
 70
   245
  0
BLOCK_RECORD
  5
21
102
{ACAD_XDICTIONARY
360
22
102
}
330
20
100
AcDbSymbolTableRecord
100
AcDbBlockTableRecord
  2
*Model_Space
340
27
  0
BLOCK_RECORD
  5
2C
330
20
100
AcDbSymbolTableRecord
100
AcDbBlockTableRecord
  2
*Paper_Space
340
2F
  0
BLOCK_RECORD
  5
51C
330
20
100
AcDbSymbolTableRecord
100
AcDbBlockTableRecord
  2
*D227
340
0
  0
BLOCK_RECORD
  5
52C
330
20
100
AcDbSymbolTableRecord
100
AcDbBlockTableRecord
  2
*D228
340
0
  0
BLOCK_RECORD
  5
539
330
20
100
AcDbSymbolTableRecord
100
AcDbBlockTableRecord
  2
*D229
340
0
  0
BLOCK_RECORD
  5
546
330
20
100
AcDbSymbolTableRecord
100
AcDbBlockTableRecord
  2
*D230
340
0
  0
BLOCK_RECORD
  5
553
330
20
100
AcDbSymbolTableRecord
100
AcDbBlockTableRecord
  2
*D231
340
0
  0
BLOCK_RECORD
  5
5A7
330
20
100
AcDbSymbolTableRecord
100
AcDbBlockTableRecord
  2
*D232
340
0
  0
BLOCK_RECORD
  5
5B5
330
20
100
AcDbSymbolTableRecord
100
AcDbBlockTableRecord
  2
*D239
340
0
  0
BLOCK_RECORD
  5
5C1
330
20
100
AcDbSymbolTableRecord
100
AcDbBlockTableRecord
  2
*D240
340
0
  0
BLOCK_RECORD
  5
5CD
330
20
100
AcDbSymbolTableRecord
100
AcDbBlockTableRecord
  2
*D241
340
0
  0
BLOCK_RECORD
  5
5D9
330
20
100
AcDbSymbolTableRecord
100
AcDbBlockTableRecord
  2
*D242
340
0
  0
BLOCK_RECORD
  5
5E5
330
20
100
AcDbSymbolTableRecord
100
AcDbBlockTableRecord
  2
*D243
340
0
  0
BLOCK_RECORD
  5
5F2
330
20
100
AcDbSymbolTableRecord
100
AcDbBlockTableRecord
  2
*D244
340
0
  0
ENDTAB
  0
ENDSEC
  0
SECTION
  2
BLOCKS
  0
BLOCK
  5
24
330
21
100
AcDbEntity
  8
0
100
AcDbBlockBegin
  2
*Model_Space
 70
     0
 10
0.0
 20
0.0
 30
0.0
  3
*Model_Space
  1

  0
ENDBLK
  5
25
330
21
100
AcDbEntity
  8
0
100
AcDbBlockEnd
  0
BLOCK
  5
2D
330
2C
100
AcDbEntity
 67
     1
  8
0
100
AcDbBlockBegin
  2
*Paper_Space
 70
     0
 10
0.0
 20
0.0
 30
0.0
  3
*Paper_Space
  1

  0
ENDBLK
  5
2E
330
2C
100
AcDbEntity
 67
     1
  8
0
100
AcDbBlockEnd
  0
BLOCK
  5
51D
330
51C
100
AcDbEntity
  8
0
100
AcDbBlockBegin
  2
*D227
 70
     1
 10
0.0
 20
0.0
 30
0.0
  3
*D227
  1
Acad:XRef
  0
LINE
  5
51E
330
51C
100
AcDbEntity
  8
D
370
    -2
100
AcDbLine
 10
370.1341996069714
 20
158.5313109764825
 30
0.0
 11
437.9653584947682
 21
158.5313109764825
 31
0.0
  0
LINE
  5
51F
330
51C
100
AcDbEntity
  8
D
370
    -2
100
AcDbLine
 10
370.1341996069714
 20
97.89312434448266
 30
0.0
 11
437.9653584947682
 21
97.89312434448266
 31
0.0
  0
LINE
  5
520
330
51C
100
AcDbEntity
  8
D
370
    -2
100
AcDbLine
 10
435.4653584947682
 20
152.2813109764825
 30
0.0
 11
435.4653584947682
 21
104.1431243444827
 31
0.0
  0
SOLID
  5
521
330
51C
100
AcDbEntity
  8
D
370
    -3
100
AcDbTrace
 10
436.5070251614349
 20
152.2813109764825
 30
0.0
 11
434.4236918281015
 21
152.2813109764825
 31
0.0
 12
435.4653584947682
 22
158.5313109764825
 32
0.0
 13
435.4653584947682
 23
158.5313109764825
 33
0.0
  0
SOLID
  5
522
330
51C
100
AcDbEntity
  8
D
370
    -3
100
AcDbTrace
 10
434.4236918281015
 20
104.1431243444827
 30
0.0
 11
436.5070251614349
 21
104.1431243444827
 31
0.0
 12
435.4653584947682
 22
97.89312434448266
 32
0.0
 13
435.4653584947682
 23
97.89312434448266
 33
0.0
  0
MTEXT
  5
523
330
51C
100
AcDbEntity
  8
D
100
AcDbMText
 10
429.5903584947682
 20
128.2122176604826
 30
0.0
 40
6.75
 41
0.0
 71
     5
 72
     1
  1
\A1;60.6
  7
ISOCP
 11
0.0
 21
1.0
 31
0.0
 73
     1
 44
1.0
  0
POINT
  5
524
330
51C
100
AcDbEntity
  8
Defpoints
 62
     0
370
    -3
100
AcDbPoint
 10
368.8841996069714
 20
158.5313109764825
 30
0.0
  0
POINT
  5
528
330
51C
100
AcDbEntity
  8
Defpoints
 62
     0
370
    -3
100
AcDbPoint
 10
368.8841996069714
 20
97.89312434448266
 30
0.0
  0
POINT
  5
529
330
51C
100
AcDbEntity
  8
Defpoints
 62
     0
370
    -3
100
AcDbPoint
 10
435.4653584947682
 20
97.89312434448266
 30
0.0
  0
ENDBLK
  5
52A
330
51C
100
AcDbEntity
  8
0
100
AcDbBlockEnd
  0
BLOCK
  5
52D
330
52C
100
AcDbEntity
  8
0
100
AcDbBlockBegin
  2
*D228
 70
     1
 10
0.0
 20
0.0
 30
0.0
  3
*D228
  1
Acad:XRef
  0
LINE
  5
52E
330
52C
100
AcDbEntity
  8
D
370
    -2
100
AcDbLine
 10
399.2032929229717
 20
129.4622176604826
 30
0.0
 11
399.2032929229717
 21
185.6242867767487
 31
0.0
  0
LINE
  5
52F
330
52C
100
AcDbEntity
  8
D
370
    -2
100
AcDbLine
 10
338.565106290971
 20
129.4622176604826
 30
0.0
 11
338.565106290971
 21
185.6242867767487
 31
0.0
  0
LINE
  5
530
330
52C
100
AcDbEntity
  8
D
370
    -2
100
AcDbLine
 10
392.9532929229717
 20
183.1242867767487
 30
0.0
 11
344.815106290971
 21
183.1242867767487
 31
0.0
  0
SOLID
  5
531
330
52C
100
AcDbEntity
  8
D
370
    -3
100
AcDbTrace
 10
392.9532929229717
 20
182.082620110082
 30
0.0
 11
392.9532929229717
 21
184.1659534434154
 31
0.0
 12
399.2032929229717
 22
183.1242867767487
 32
0.0
 13
399.2032929229717
 23
183.1242867767487
 33
0.0
  0
SOLID
  5
532
330
52C
100
AcDbEntity
  8
D
370
    -3
100
AcDbTrace
 10
344.815106290971
 20
184.1659534434154
 30
0.0
 11
344.815106290971
 21
182.082620110082
 31
0.0
 12
338.565106290971
 22
183.1242867767487
 32
0.0
 13
338.565106290971
 23
183.1242867767487
 33
0.0
  0
MTEXT
  5
533
330
52C
100
AcDbEntity
  8
D
100
AcDbMText
 10
368.8841996069714
 20
188.9992867767487
 30
0.0
 40
6.75
 41
0.0
 71
     5
 72
     1
  1
\A1;60.6
  7
ISOCP
 73
     1
 44
1.0
  0
POINT
  5
534
330
52C
100
AcDbEntity
  8
Defpoints
 62
     0
370
    -3
100
AcDbPoint
 10
399.2032929229717
 20
128.2122176604826
 30
0.0
  0
POINT
  5
535
330
52C
100
AcDbEntity
  8
Defpoints
 62
     0
370
    -3
100
AcDbPoint
 10
338.565106290971
 20
128.2122176604826
 30
0.0
  0
POINT
  5
536
330
52C
100
AcDbEntity
  8
Defpoints
 62
     0
370
    -3
100
AcDbPoint
 10
338.565106290971
 20
183.1242867767487
 30
0.0
  0
ENDBLK
  5
537
330
52C
100
AcDbEntity
  8
0
100
AcDbBlockEnd
  0
BLOCK
  5
53A
330
539
100
AcDbEntity
  8
0
100
AcDbBlockBegin
  2
*D229
 70
     1
 10
0.0
 20
0.0
 30
0.0
  3
*D229
  1
Acad:XRef
  0
LINE
  5
53B
330
539
100
AcDbEntity
  8
1
370
    -2
100
AcDbLine
 10
130.5784621069706
 20
87.46221766048257
 30
0.0
 11
130.5784621069706
 21
68.45839732261584
 31
0.0
  0
LINE
  5
53C
330
539
100
AcDbEntity
  8
1
370
    -2
100
AcDbLine
 10
210.5784621069706
 20
87.46221766048257
 30
0.0
 11
210.5784621069706
 21
68.45839732261584
 31
0.0
  0
LINE
  5
53D
330
539
100
AcDbEntity
  8
1
370
    -2
100
AcDbLine
 10
136.8284621069706
 20
70.95839732261584
 30
0.0
 11
204.3284621069706
 21
70.95839732261584
 31
0.0
  0
SOLID
  5
53E
330
539
100
AcDbEntity
  8
1
370
    -3
100
AcDbTrace
 10
136.8284621069706
 20
72.00006398928251
 30
0.0
 11
136.8284621069706
 21
69.91673065594917
 31
0.0
 12
130.5784621069706
 22
70.95839732261584
 32
0.0
 13
130.5784621069706
 23
70.95839732261584
 33
0.0
  0
SOLID
  5
53F
330
539
100
AcDbEntity
  8
1
370
    -3
100
AcDbTrace
 10
204.3284621069706
 20
69.91673065594917
 30
0.0
 11
204.3284621069706
 21
72.00006398928251
 31
0.0
 12
210.5784621069706
 22
70.95839732261584
 32
0.0
 13
210.5784621069706
 23
70.95839732261584
 33
0.0
  0
MTEXT
  5
540
330
539
100
AcDbEntity
  8
1
100
AcDbMText
 10
170.5784621069706
 20
76.83339732261584
 30
0.0
 40
6.75
 41
0.0
 71
     5
 72
     1
  1
\A1;80.0
  7
ISOCP
 73
     1
 44
1.0
  0
POINT
  5
541
330
539
100
AcDbEntity
  8
Defpoints
 62
     0
370
    -3
100
AcDbPoint
 10
130.5784621069706
 20
88.71221766048257
 30
0.0
  0
POINT
  5
542
330
539
100
AcDbEntity
  8
Defpoints
 62
     0
370
    -3
100
AcDbPoint
 10
210.5784621069706
 20
88.71221766048257
 30
0.0
  0
POINT
  5
543
330
539
100
AcDbEntity
  8
Defpoints
 62
     0
370
    -3
100
AcDbPoint
 10
210.5784621069706
 20
70.95839732261584
 30
0.0
  0
ENDBLK
  5
544
330
539
100
AcDbEntity
  8
0
100
AcDbBlockEnd
  0
BLOCK
  5
547
330
546
100
AcDbEntity
  8
0
100
AcDbBlockBegin
  2
*D230
 70
     1
 10
0.0
 20
0.0
 30
0.0
  3
*D230
  1
Acad:XRef
  0
LINE
  5
548
330
546
100
AcDbEntity
  8
1
370
    -2
100
AcDbLine
 10
211.3284621069706
 20
168.2122176604826
 30
0.0
 11
233.1198976869
 21
168.2122176604826
 31
0.0
  0
LINE
  5
549
330
546
100
AcDbEntity
  8
1
370
    -2
100
AcDbLine
 10
211.3284621069706
 20
88.21221766048257
 30
0.0
 11
233.1198976869
 21
88.21221766048257
 31
0.0
  0
LINE
  5
54A
330
546
100
AcDbEntity
  8
1
370
    -2
100
AcDbLine
 10
230.6198976869
 20
161.9622176604826
 30
0.0
 11
230.6198976869
 21
94.46221766048257
 31
0.0
  0
SOLID
  5
54B
330
546
100
AcDbEntity
  8
1
370
    -3
100
AcDbTrace
 10
231.6615643535667
 20
161.9622176604826
 30
0.0
 11
229.5782310202333
 21
161.9622176604826
 31
0.0
 12
230.6198976869
 22
168.2122176604826
 32
0.0
 13
230.6198976869
 23
168.2122176604826
 33
0.0
  0
SOLID
  5
54C
330
546
100
AcDbEntity
  8
1
370
    -3
100
AcDbTrace
 10
229.5782310202333
 20
94.46221766048257
 30
0.0
 11
231.6615643535667
 21
94.46221766048257
 31
0.0
 12
230.6198976869
 22
88.21221766048257
 32
0.0
 13
230.6198976869
 23
88.21221766048257
 33
0.0
  0
MTEXT
  5
54D
330
546
100
AcDbEntity
  8
1
100
AcDbMText
 10
224.7448976869
 20
128.2122176604826
 30
0.0
 40
6.75
 41
0.0
 71
     5
 72
     1
  1
\A1;80.0
  7
ISOCP
 11
0.0
 21
1.0
 31
0.0
 73
     1
 44
1.0
  0
POINT
  5
54E
330
546
100
AcDbEntity
  8
Defpoints
 62
     0
370
    -3
100
AcDbPoint
 10
210.0784621069706
 20
168.2122176604826
 30
0.0
  0
POINT
  5
54F
330
546
100
AcDbEntity
  8
Defpoints
 62
     0
370
    -3
100
AcDbPoint
 10
210.0784621069706
 20
88.21221766048257
 30
0.0
  0
POINT
  5
550
330
546
100
AcDbEntity
  8
Defpoints
 62
     0
370
    -3
100
AcDbPoint
 10
230.6198976869
 20
88.21221766048257
 30
0.0
  0
ENDBLK
  5
551
330
546
100
AcDbEntity
  8
0
100
AcDbBlockEnd
  0
BLOCK
  5
554
330
553
100
AcDbEntity
  8
0
100
AcDbBlockBegin
  2
*D231
 70
     1
 10
0.0
 20
0.0
 30
0.0
  3
*D231
  1
Acad:XRef
  0
LINE
  5
555
330
553
100
AcDbEntity
  8
1
370
    -2
100
AcDbLine
 10
266.1527996069708
 20
103.8968286057825
 30
0.0
 11
266.1527996069708
 21
68.45839732261584
 31
0.0
  0
LINE
  5
556
330
553
100
AcDbEntity
  8
1
370
    -2
100
AcDbLine
 10
283.7527996069712
 20
86.96221766048257
 30
0.0
 11
283.7527996069712
 21
68.45839732261584
 31
0.0
  0
LINE
  5
557
330
553
100
AcDbEntity
  8
1
370
    -2
100
AcDbLine
 10
266.1527996069708
 20
70.95839732261584
 30
0.0
 11
229.9075014363955
 21
70.95839732261584
 31
0.0
  0
LINE
  5
558
330
553
100
AcDbEntity
  8
1
370
    -2
100
AcDbLine
 10
272.4027996069708
 20
70.95839732261584
 30
0.0
 11
277.5027996069712
 21
70.95839732261584
 31
0.0
  0
SOLID
  5
559
330
553
100
AcDbEntity
  8
1
370
    -3
100
AcDbTrace
 10
272.4027996069708
 20
72.00006398928251
 30
0.0
 11
272.4027996069708
 21
69.91673065594917
 31
0.0
 12
266.1527996069708
 22
70.95839732261584
 32
0.0
 13
266.1527996069708
 23
70.95839732261584
 33
0.0
  0
SOLID
  5
55A
330
553
100
AcDbEntity
  8
1
370
    -3
100
AcDbTrace
 10
277.5027996069712
 20
69.91673065594917
 30
0.0
 11
277.5027996069712
 21
72.00006398928251
 31
0.0
 12
283.7527996069712
 22
70.95839732261584
 32
0.0
 13
283.7527996069712
 23
70.95839732261584
 33
0.0
  0
MTEXT
  5
55B
330
553
100
AcDbEntity
  8
1
100
AcDbMText
 10
239.4673035439791
 20
76.83339732261584
 30
0.0
 40
6.75
 41
0.0
 71
     5
 72
     1
  1
\A1;17.6
  7
ISOCP
 73
     1
 44
1.0
  0
POINT
  5
55C
330
553
100
AcDbEntity
  8
Defpoints
 62
     0
370
    -3
100
AcDbPoint
 10
266.1527996069708
 20
105.1468286057825
 30
0.0
  0
POINT
  5
55D
330
553
100
AcDbEntity
  8
Defpoints
 62
     0
370
    -3
100
AcDbPoint
 10
283.7527996069712
 20
88.21221766048257
 30
0.0
  0
POINT
  5
55E
330
553
100
AcDbEntity
  8
Defpoints
 62
     0
370
    -3
100
AcDbPoint
 10
283.7527996069712
 20
70.95839732261584
 30
0.0
  0
ENDBLK
  5
55F
330
553
100
AcDbEntity
  8
0
100
AcDbBlockEnd
  0
BLOCK
  5
5A8
330
5A7
100
AcDbEntity
  8
0
100
AcDbBlockBegin
  2
*D232
 70
     1
 10
0.0
 20
0.0
 30
0.0
  3
*D232
  1
Acad:XRef
  0
LINE
  5
5A9
330
5A7
100
AcDbEntity
  8
1
370
    -2
100
AcDbLine
 10
293.5027996069712
 20
166.4622176604826
 30
0.0
 11
293.5027996069712
 21
185.6242867767487
 31
0.0
  0
LINE
  5
5AA
330
5A7
100
AcDbEntity
  8
1
370
    -2
100
AcDbLine
 10
283.7527996069712
 20
169.4622176604826
 30
0.0
 11
283.7527996069712
 21
185.6242867767487
 31
0.0
  0
LINE
  5
5AB
330
5A7
100
AcDbEntity
  8
1
370
    -2
100
AcDbLine
 10
277.5027996069712
 20
183.1242867767487
 30
0.0
 11
255.8577996069712
 21
183.1242867767487
 31
0.0
  0
LINE
  5
5AC
330
5A7
100
AcDbEntity
  8
1
370
    -2
100
AcDbLine
 10
293.5027996069712
 20
183.1242867767487
 30
0.0
 11
283.7527996069712
 21
183.1242867767487
 31
0.0
  0
LINE
  5
5AD
330
5A7
100
AcDbEntity
  8
1
370
    -2
100
AcDbLine
 10
299.7527996069712
 20
183.1242867767487
 30
0.0
 11
306.0027996069712
 21
183.1242867767487
 31
0.0
  0
SOLID
  5
5AE
330
5A7
100
AcDbEntity
  8
1
370
    -3
100
AcDbTrace
 10
299.7527996069712
 20
184.1659534434154
 30
0.0
 11
299.7527996069712
 21
182.082620110082
 31
0.0
 12
293.5027996069712
 22
183.1242867767487
 32
0.0
 13
293.5027996069712
 23
183.1242867767487
 33
0.0
  0
SOLID
  5
5AF
330
5A7
100
AcDbEntity
  8
1
370
    -3
100
AcDbTrace
 10
277.5027996069712
 20
182.082620110082
 30
0.0
 11
277.5027996069712
 21
184.1659534434154
 31
0.0
 12
283.7527996069712
 22
183.1242867767487
 32
0.0
 13
283.7527996069712
 23
183.1242867767487
 33
0.0
  0
MTEXT
  5
5B0
330
5A7
100
AcDbEntity
  8
1
100
AcDbMText
 10
263.5552996069712
 20
188.9992867767487
 30
0.0
 40
6.75
 41
0.0
 71
     5
 72
     1
  1
\A1;9.8
  7
ISOCP
 73
     1
 44
1.0
  0
POINT
  5
5B1
330
5A7
100
AcDbEntity
  8
Defpoints
 62
     0
370
    -3
100
AcDbPoint
 10
293.5027996069712
 20
165.2122176604826
 30
0.0
  0
POINT
  5
5B2
330
5A7
100
AcDbEntity
  8
Defpoints
 62
     0
370
    -3
100
AcDbPoint
 10
283.7527996069712
 20
168.2122176604826
 30
0.0
  0
POINT
  5
5B3
330
5A7
100
AcDbEntity
  8
Defpoints
 62
     0
370
    -3
100
AcDbPoint
 10
283.7527996069712
 20
183.1242867767487
 30
0.0
  0
ENDBLK
  5
5B4
330
5A7
100
AcDbEntity
  8
0
100
AcDbBlockEnd
  0
BLOCK
  5
5BF
330
5B5
100
AcDbEntity
  8
0
100
AcDbBlockBegin
  2
*D239
 70
     1
 10
0.0
 20
0.0
 30
0.0
  3
*D239
  1
Acad:XRef
  0
LINE
  5
5B6
330
5B5
100
AcDbEntity
  8
D
370
    -2
100
AcDbLine
 10
370.1341996069714
 20
158.5313109764825
 30
0.0
 11
437.9653584947682
 21
158.5313109764825
 31
0.0
  0
LINE
  5
5B7
330
5B5
100
AcDbEntity
  8
D
370
    -2
100
AcDbLine
 10
370.1341996069714
 20
97.89312434448266
 30
0.0
 11
437.9653584947682
 21
97.89312434448266
 31
0.0
  0
LINE
  5
5B8
330
5B5
100
AcDbEntity
  8
D
370
    -2
100
AcDbLine
 10
435.4653584947682
 20
152.2813109764825
 30
0.0
 11
435.4653584947682
 21
104.1431243444827
 31
0.0
  0
SOLID
  5
5B9
330
5B5
100
AcDbEntity
  8
D
370
    -3
100
AcDbTrace
 10
436.5070251614349
 20
152.2813109764825
 30
0.0
 11
434.4236918281015
 21
152.2813109764825
 31
0.0
 12
435.4653584947682
 22
158.5313109764825
 32
0.0
 13
435.4653584947682
 23
158.5313109764825
 33
0.0
  0
SOLID
  5
5BA
330
5B5
100
AcDbEntity
  8
D
370
    -3
100
AcDbTrace
 10
434.4236918281015
 20
104.1431243444827
 30
0.0
 11
436.5070251614349
 21
104.1431243444827
 31
0.0
 12
435.4653584947682
 22
97.89312434448266
 32
0.0
 13
435.4653584947682
 23
97.89312434448266
 33
0.0
  0
MTEXT
  5
5BB
330
5B5
100
AcDbEntity
  8
D
100
AcDbMText
 10
429.5903584947682
 20
128.2122176604826
 30
0.0
 40
6.75
 41
0.0
 71
     5
 72
     1
  1
\A1;60.6
  7
ISOCP
 11
0.0
 21
1.0
 31
0.0
 73
     1
 44
1.0
  0
POINT
  5
5BC
330
5B5
100
AcDbEntity
  8
Defpoints
 62
     0
370
    -3
100
AcDbPoint
 10
368.8841996069714
 20
158.5313109764825
 30
0.0
  0
POINT
  5
5BD
330
5B5
100
AcDbEntity
  8
Defpoints
 62
     0
370
    -3
100
AcDbPoint
 10
368.8841996069714
 20
97.89312434448266
 30
0.0
  0
POINT
  5
5BE
330
5B5
100
AcDbEntity
  8
Defpoints
 62
     0
370
    -3
100
AcDbPoint
 10
435.4653584947682
 20
97.89312434448266
 30
0.0
  0
ENDBLK
  5
5C0
330
5B5
100
AcDbEntity
  8
0
100
AcDbBlockEnd
  0
BLOCK
  5
5CB
330
5C1
100
AcDbEntity
  8
0
100
AcDbBlockBegin
  2
*D240
 70
     1
 10
0.0
 20
0.0
 30
0.0
  3
*D240
  1
Acad:XRef
  0
LINE
  5
5C2
330
5C1
100
AcDbEntity
  8
D
370
    -2
100
AcDbLine
 10
399.2032929229717
 20
129.4622176604826
 30
0.0
 11
399.2032929229717
 21
185.6242867767487
 31
0.0
  0
LINE
  5
5C3
330
5C1
100
AcDbEntity
  8
D
370
    -2
100
AcDbLine
 10
338.565106290971
 20
129.4622176604826
 30
0.0
 11
338.565106290971
 21
185.6242867767487
 31
0.0
  0
LINE
  5
5C4
330
5C1
100
AcDbEntity
  8
D
370
    -2
100
AcDbLine
 10
392.9532929229717
 20
183.1242867767487
 30
0.0
 11
344.815106290971
 21
183.1242867767487
 31
0.0
  0
SOLID
  5
5C5
330
5C1
100
AcDbEntity
  8
D
370
    -3
100
AcDbTrace
 10
392.9532929229717
 20
182.082620110082
 30
0.0
 11
392.9532929229717
 21
184.1659534434154
 31
0.0
 12
399.2032929229717
 22
183.1242867767487
 32
0.0
 13
399.2032929229717
 23
183.1242867767487
 33
0.0
  0
SOLID
  5
5C6
330
5C1
100
AcDbEntity
  8
D
370
    -3
100
AcDbTrace
 10
344.815106290971
 20
184.1659534434154
 30
0.0
 11
344.815106290971
 21
182.082620110082
 31
0.0
 12
338.565106290971
 22
183.1242867767487
 32
0.0
 13
338.565106290971
 23
183.1242867767487
 33
0.0
  0
MTEXT
  5
5C7
330
5C1
100
AcDbEntity
  8
D
100
AcDbMText
 10
368.8841996069714
 20
188.9992867767487
 30
0.0
 40
6.75
 41
0.0
 71
     5
 72
     1
  1
\A1;60.6
  7
ISOCP
 73
     1
 44
1.0
  0
POINT
  5
5C8
330
5C1
100
AcDbEntity
  8
Defpoints
 62
     0
370
    -3
100
AcDbPoint
 10
399.2032929229717
 20
128.2122176604826
 30
0.0
  0
POINT
  5
5C9
330
5C1
100
AcDbEntity
  8
Defpoints
 62
     0
370
    -3
100
AcDbPoint
 10
338.565106290971
 20
128.2122176604826
 30
0.0
  0
POINT
  5
5CA
330
5C1
100
AcDbEntity
  8
Defpoints
 62
     0
370
    -3
100
AcDbPoint
 10
338.565106290971
 20
183.1242867767487
 30
0.0
  0
ENDBLK
  5
5CC
330
5C1
100
AcDbEntity
  8
0
100
AcDbBlockEnd
  0
BLOCK
  5
5D7
330
5CD
100
AcDbEntity
  8
0
100
AcDbBlockBegin
  2
*D241
 70
     1
 10
0.0
 20
0.0
 30
0.0
  3
*D241
  1
Acad:XRef
  0
LINE
  5
5CE
330
5CD
100
AcDbEntity
  8
1
370
    -2
100
AcDbLine
 10
130.5784621069706
 20
87.46221766048257
 30
0.0
 11
130.5784621069706
 21
68.45839732261584
 31
0.0
  0
LINE
  5
5CF
330
5CD
100
AcDbEntity
  8
1
370
    -2
100
AcDbLine
 10
210.5784621069706
 20
87.46221766048257
 30
0.0
 11
210.5784621069706
 21
68.45839732261584
 31
0.0
  0
LINE
  5
5D0
330
5CD
100
AcDbEntity
  8
1
370
    -2
100
AcDbLine
 10
136.8284621069706
 20
70.95839732261584
 30
0.0
 11
204.3284621069706
 21
70.95839732261584
 31
0.0
  0
SOLID
  5
5D1
330
5CD
100
AcDbEntity
  8
1
370
    -3
100
AcDbTrace
 10
136.8284621069706
 20
72.00006398928251
 30
0.0
 11
136.8284621069706
 21
69.91673065594917
 31
0.0
 12
130.5784621069706
 22
70.95839732261584
 32
0.0
 13
130.5784621069706
 23
70.95839732261584
 33
0.0
  0
SOLID
  5
5D2
330
5CD
100
AcDbEntity
  8
1
370
    -3
100
AcDbTrace
 10
204.3284621069706
 20
69.91673065594917
 30
0.0
 11
204.3284621069706
 21
72.00006398928251
 31
0.0
 12
210.5784621069706
 22
70.95839732261584
 32
0.0
 13
210.5784621069706
 23
70.95839732261584
 33
0.0
  0
MTEXT
  5
5D3
330
5CD
100
AcDbEntity
  8
1
100
AcDbMText
 10
170.5784621069706
 20
76.83339732261584
 30
0.0
 40
6.75
 41
0.0
 71
     5
 72
     1
  1
\A1;80.0
  7
ISOCP
 73
     1
 44
1.0
  0
POINT
  5
5D4
330
5CD
100
AcDbEntity
  8
Defpoints
 62
     0
370
    -3
100
AcDbPoint
 10
130.5784621069706
 20
88.71221766048257
 30
0.0
  0
POINT
  5
5D5
330
5CD
100
AcDbEntity
  8
Defpoints
 62
     0
370
    -3
100
AcDbPoint
 10
210.5784621069706
 20
88.71221766048257
 30
0.0
  0
POINT
  5
5D6
330
5CD
100
AcDbEntity
  8
Defpoints
 62
     0
370
    -3
100
AcDbPoint
 10
210.5784621069706
 20
70.95839732261584
 30
0.0
  0
ENDBLK
  5
5D8
330
5CD
100
AcDbEntity
  8
0
100
AcDbBlockEnd
  0
BLOCK
  5
5E3
330
5D9
100
AcDbEntity
  8
0
100
AcDbBlockBegin
  2
*D242
 70
     1
 10
0.0
 20
0.0
 30
0.0
  3
*D242
  1
Acad:XRef
  0
LINE
  5
5DA
330
5D9
100
AcDbEntity
  8
1
370
    -2
100
AcDbLine
 10
211.3284621069706
 20
168.2122176604826
 30
0.0
 11
233.1198976869
 21
168.2122176604826
 31
0.0
  0
LINE
  5
5DB
330
5D9
100
AcDbEntity
  8
1
370
    -2
100
AcDbLine
 10
211.3284621069706
 20
88.21221766048257
 30
0.0
 11
233.1198976869
 21
88.21221766048257
 31
0.0
  0
LINE
  5
5DC
330
5D9
100
AcDbEntity
  8
1
370
    -2
100
AcDbLine
 10
230.6198976869
 20
161.9622176604826
 30
0.0
 11
230.6198976869
 21
94.46221766048257
 31
0.0
  0
SOLID
  5
5DD
330
5D9
100
AcDbEntity
  8
1
370
    -3
100
AcDbTrace
 10
231.6615643535667
 20
161.9622176604826
 30
0.0
 11
229.5782310202333
 21
161.9622176604826
 31
0.0
 12
230.6198976869
 22
168.2122176604826
 32
0.0
 13
230.6198976869
 23
168.2122176604826
 33
0.0
  0
SOLID
  5
5DE
330
5D9
100
AcDbEntity
  8
1
370
    -3
100
AcDbTrace
 10
229.5782310202333
 20
94.46221766048257
 30
0.0
 11
231.6615643535667
 21
94.46221766048257
 31
0.0
 12
230.6198976869
 22
88.21221766048257
 32
0.0
 13
230.6198976869
 23
88.21221766048257
 33
0.0
  0
MTEXT
  5
5DF
330
5D9
100
AcDbEntity
  8
1
100
AcDbMText
 10
224.7448976869
 20
128.2122176604826
 30
0.0
 40
6.75
 41
0.0
 71
     5
 72
     1
  1
\A1;80.0
  7
ISOCP
 11
0.0
 21
1.0
 31
0.0
 73
     1
 44
1.0
  0
POINT
  5
5E0
330
5D9
100
AcDbEntity
  8
Defpoints
 62
     0
370
    -3
100
AcDbPoint
 10
210.0784621069706
 20
168.2122176604826
 30
0.0
  0
POINT
  5
5E1
330
5D9
100
AcDbEntity
  8
Defpoints
 62
     0
370
    -3
100
AcDbPoint
 10
210.0784621069706
 20
88.21221766048257
 30
0.0
  0
POINT
  5
5E2
330
5D9
100
AcDbEntity
  8
Defpoints
 62
     0
370
    -3
100
AcDbPoint
 10
230.6198976869
 20
88.21221766048257
 30
0.0
  0
ENDBLK
  5
5E4
330
5D9
100
AcDbEntity
  8
0
100
AcDbBlockEnd
  0
BLOCK
  5
5F0
330
5E5
100
AcDbEntity
  8
0
100
AcDbBlockBegin
  2
*D243
 70
     1
 10
0.0
 20
0.0
 30
0.0
  3
*D243
  1
Acad:XRef
  0
LINE
  5
5E6
330
5E5
100
AcDbEntity
  8
1
370
    -2
100
AcDbLine
 10
266.1527996069708
 20
103.8968286057825
 30
0.0
 11
266.1527996069708
 21
68.45839732261584
 31
0.0
  0
LINE
  5
5E7
330
5E5
100
AcDbEntity
  8
1
370
    -2
100
AcDbLine
 10
283.7527996069712
 20
86.96221766048257
 30
0.0
 11
283.7527996069712
 21
68.45839732261584
 31
0.0
  0
LINE
  5
5E8
330
5E5
100
AcDbEntity
  8
1
370
    -2
100
AcDbLine
 10
266.1527996069708
 20
70.95839732261584
 30
0.0
 11
229.9075014363955
 21
70.95839732261584
 31
0.0
  0
LINE
  5
5E9
330
5E5
100
AcDbEntity
  8
1
370
    -2
100
AcDbLine
 10
272.4027996069708
 20
70.95839732261584
 30
0.0
 11
277.5027996069712
 21
70.95839732261584
 31
0.0
  0
SOLID
  5
5EA
330
5E5
100
AcDbEntity
  8
1
370
    -3
100
AcDbTrace
 10
272.4027996069708
 20
72.00006398928251
 30
0.0
 11
272.4027996069708
 21
69.91673065594917
 31
0.0
 12
266.1527996069708
 22
70.95839732261584
 32
0.0
 13
266.1527996069708
 23
70.95839732261584
 33
0.0
  0
SOLID
  5
5EB
330
5E5
100
AcDbEntity
  8
1
370
    -3
100
AcDbTrace
 10
277.5027996069712
 20
69.91673065594917
 30
0.0
 11
277.5027996069712
 21
72.00006398928251
 31
0.0
 12
283.7527996069712
 22
70.95839732261584
 32
0.0
 13
283.7527996069712
 23
70.95839732261584
 33
0.0
  0
MTEXT
  5
5EC
330
5E5
100
AcDbEntity
  8
1
100
AcDbMText
 10
239.4673035439791
 20
76.83339732261584
 30
0.0
 40
6.75
 41
0.0
 71
     5
 72
     1
  1
\A1;17.6
  7
ISOCP
 73
     1
 44
1.0
  0
POINT
  5
5ED
330
5E5
100
AcDbEntity
  8
Defpoints
 62
     0
370
    -3
100
AcDbPoint
 10
266.1527996069708
 20
105.1468286057825
 30
0.0
  0
POINT
  5
5EE
330
5E5
100
AcDbEntity
  8
Defpoints
 62
     0
370
    -3
100
AcDbPoint
 10
283.7527996069712
 20
88.21221766048257
 30
0.0
  0
POINT
  5
5EF
330
5E5
100
AcDbEntity
  8
Defpoints
 62
     0
370
    -3
100
AcDbPoint
 10
283.7527996069712
 20
70.95839732261584
 30
0.0
  0
ENDBLK
  5
5F1
330
5E5
100
AcDbEntity
  8
0
100
AcDbBlockEnd
  0
BLOCK
  5
5FE
330
5F2
100
AcDbEntity
  8
0
100
AcDbBlockBegin
  2
*D244
 70
     1
 10
0.0
 20
0.0
 30
0.0
  3
*D244
  1
Acad:XRef
  0
LINE
  5
5F3
330
5F2
100
AcDbEntity
  8
1
370
    -2
100
AcDbLine
 10
293.5027996069712
 20
166.4622176604826
 30
0.0
 11
293.5027996069712
 21
185.6242867767487
 31
0.0
  0
LINE
  5
5F4
330
5F2
100
AcDbEntity
  8
1
370
    -2
100
AcDbLine
 10
283.7527996069712
 20
169.4622176604826
 30
0.0
 11
283.7527996069712
 21
185.6242867767487
 31
0.0
  0
LINE
  5
5F5
330
5F2
100
AcDbEntity
  8
1
370
    -2
100
AcDbLine
 10
277.5027996069712
 20
183.1242867767487
 30
0.0
 11
255.8577996069712
 21
183.1242867767487
 31
0.0
  0
LINE
  5
5F6
330
5F2
100
AcDbEntity
  8
1
370
    -2
100
AcDbLine
 10
293.5027996069712
 20
183.1242867767487
 30
0.0
 11
283.7527996069712
 21
183.1242867767487
 31
0.0
  0
LINE
  5
5F7
330
5F2
100
AcDbEntity
  8
1
370
    -2
100
AcDbLine
 10
299.7527996069712
 20
183.1242867767487
 30
0.0
 11
306.0027996069712
 21
183.1242867767487
 31
0.0
  0
SOLID
  5
5F8
330
5F2
100
AcDbEntity
  8
1
370
    -3
100
AcDbTrace
 10
299.7527996069712
 20
184.1659534434154
 30
0.0
 11
299.7527996069712
 21
182.082620110082
 31
0.0
 12
293.5027996069712
 22
183.1242867767487
 32
0.0
 13
293.5027996069712
 23
183.1242867767487
 33
0.0
  0
SOLID
  5
5F9
330
5F2
100
AcDbEntity
  8
1
370
    -3
100
AcDbTrace
 10
277.5027996069712
 20
182.082620110082
 30
0.0
 11
277.5027996069712
 21
184.1659534434154
 31
0.0
 12
283.7527996069712
 22
183.1242867767487
 32
0.0
 13
283.7527996069712
 23
183.1242867767487
 33
0.0
  0
MTEXT
  5
5FA
330
5F2
100
AcDbEntity
  8
1
100
AcDbMText
 10
263.5552996069712
 20
188.9992867767487
 30
0.0
 40
6.75
 41
0.0
 71
     5
 72
     1
  1
\A1;9.8
  7
ISOCP
 73
     1
 44
1.0
  0
POINT
  5
5FB
330
5F2
100
AcDbEntity
  8
Defpoints
 62
     0
370
    -3
100
AcDbPoint
 10
293.5027996069712
 20
165.2122176604826
 30
0.0
  0
POINT
  5
5FC
330
5F2
100
AcDbEntity
  8
Defpoints
 62
     0
370
    -3
100
AcDbPoint
 10
283.7527996069712
 20
168.2122176604826
 30
0.0
  0
POINT
  5
5FD
330
5F2
100
AcDbEntity
  8
Defpoints
 62
     0
370
    -3
100
AcDbPoint
 10
283.7527996069712
 20
183.1242867767487
 30
0.0
  0
ENDBLK
  5
5FF
330
5F2
100
AcDbEntity
  8
0
100
AcDbBlockEnd
  0
ENDSEC
  0
SECTION
  2
ENTITIES
  0
LINE
  5
63
330
21
100
AcDbEntity
  8
1
100
AcDbLine
 10
131.0784621069706
 20
168.2122176604826
 30
0.0
 11
130.5784621069706
 21
167.7122176604826
 31
0.0
  0
LINE
  5
67
330
21
100
AcDbEntity
  8
1
100
AcDbLine
 10
130.5784621069706
 20
88.71221766048257
 30
0.0
 11
131.0784621069706
 21
88.21221766048257
 31
0.0
  0
LINE
  5
68
330
21
100
AcDbEntity
  8
1
100
AcDbLine
 10
131.28556888817
 20
167.7122176604826
 30
0.0
 11
131.0784621069706
 21
167.5051108792827
 31
0.0
  0
LINE
  5
69
330
21
100
AcDbEntity
  8
1
100
AcDbLine
 10
131.0784621069706
 20
88.91932444168242
 30
0.0
 11
131.28556888817
 21
88.71221766048257
 31
0.0
  0
LINE
  5
6A
330
21
100
AcDbEntity
  8
1
100
AcDbLine
 10
134.3784621069717
 20
165.7122176604826
 30
0.0
 11
134.0784621069706
 21
165.4122176604824
 31
0.0
  0
LINE
  5
6B
330
21
100
AcDbEntity
  8
1
100
AcDbLine
 10
134.5027261756713
 20
165.4122176604824
 30
0.0
 11
134.3784621069717
 21
165.2879535917828
 31
0.0
  0
LINE
  5
6C
330
21
100
AcDbEntity
  8
1
100
AcDbLine
 10
134.0784621069706
 20
91.01221766048275
 30
0.0
 11
134.3784621069717
 21
90.71221766048257
 31
0.0
  0
LINE
  5
6D
330
21
100
AcDbEntity
  8
1
100
AcDbLine
 10
134.3784621069717
 20
91.13648172918238
 30
0.0
 11
134.5027261756713
 21
91.01221766048275
 31
0.0
  0
LINE
  5
6E
330
21
100
AcDbEntity
  8
1
100
AcDbLine
 10
130.5784621069706
 20
167.7122176604826
 30
0.0
 11
130.5784621069706
 21
88.71221766048257
 31
0.0
  0
LINE
  5
6F
330
21
100
AcDbEntity
  8
1
100
AcDbLine
 10
153.5284621069713
 20
165.4122176604824
 30
0.0
 11
153.2284621069703
 21
165.2879535917828
 31
0.0
  0
LINE
  5
70
330
21
100
AcDbEntity
  8
1
100
AcDbLine
 10
131.0784621069706
 20
88.21221766048257
 30
0.0
 11
210.0784621069706
 21
88.21221766048257
 31
0.0
  0
LINE
  5
71
330
21
100
AcDbEntity
  8
1
100
AcDbLine
 10
153.5284621069713
 20
91.01221766048275
 30
0.0
 11
153.2284621069703
 21
91.13648172918238
 31
0.0
  0
LINE
  5
72
330
21
100
AcDbEntity
  8
1
100
AcDbLine
 10
131.0784621069706
 20
167.5051108792827
 30
0.0
 11
131.0784621069706
 21
88.91932444168242
 31
0.0
  0
LINE
  5
73
330
21
100
AcDbEntity
  8
1
100
AcDbLine
 10
132.8284621069706
 20
165.7122176604826
 30
0.0
 11
132.8284621069706
 21
90.71221766048257
 31
0.0
  0
LINE
  5
74
330
21
100
AcDbEntity
  8
1
100
AcDbLine
 10
133.0784621069706
 20
164.7122176604826
 30
0.0
 11
133.0784621069706
 21
91.71221766048257
 31
0.0
  0
LINE
  5
75
330
21
100
AcDbEntity
  8
1
100
AcDbLine
 10
134.0784621069706
 20
91.01221766048275
 30
0.0
 11
134.0784621069706
 21
127.7622176604827
 31
0.0
  0
LINE
  5
76
330
21
100
AcDbEntity
  8
1
100
AcDbLine
 10
134.0784621069706
 20
128.6622176604824
 30
0.0
 11
134.0784621069706
 21
165.4122176604824
 31
0.0
  0
LINE
  5
77
330
21
100
AcDbEntity
  8
1
100
AcDbLine
 10
134.3784621069717
 20
91.13648172918238
 30
0.0
 11
134.3784621069717
 21
127.6379535917827
 31
0.0
  0
LINE
  5
78
330
21
100
AcDbEntity
  8
1
100
AcDbLine
 10
134.3784621069717
 20
128.7864817291825
 30
0.0
 11
134.3784621069717
 21
165.2879535917828
 31
0.0
  0
LINE
  5
79
330
21
100
AcDbEntity
  8
1
100
AcDbLine
 10
131.28556888817
 20
88.71221766048257
 30
0.0
 11
209.8713553257712
 21
88.71221766048257
 31
0.0
  0
LINE
  5
7A
330
21
100
AcDbEntity
  8
1
100
AcDbLine
 10
133.3284621069706
 20
90.21221766048257
 30
0.0
 11
207.8284621069706
 21
90.21221766048257
 31
0.0
  0
LINE
  5
7B
330
21
100
AcDbEntity
  8
1
100
AcDbLine
 10
153.8284621069706
 20
90.36221766048266
 30
0.0
 11
187.3284621069706
 21
90.36221766048266
 31
0.0
  0
LINE
  5
7C
330
21
100
AcDbEntity
  8
1
100
AcDbLine
 10
153.8284621069706
 20
90.45482089448251
 30
0.0
 11
187.3284621069706
 21
90.45482089448251
 31
0.0
  0
LINE
  5
7D
330
21
100
AcDbEntity
  8
1
100
AcDbLine
 10
134.0784621069706
 20
90.71221766048257
 30
0.0
 11
153.7284621069703
 21
90.71221766048257
 31
0.0
  0
LINE
  5
7E
330
21
100
AcDbEntity
  8
1
100
AcDbLine
 10
187.428462106971
 20
90.71221766048257
 30
0.0
 11
207.0784621069706
 21
90.71221766048257
 31
0.0
  0
LINE
  5
7F
330
21
100
AcDbEntity
  8
1
100
AcDbLine
 10
153.8284621069706
 20
90.75477520298273
 30
0.0
 11
187.3284621069706
 21
90.75477520298273
 31
0.0
  0
LINE
  5
80
330
21
100
AcDbEntity
  8
1
100
AcDbLine
 10
134.5027261756713
 20
91.01221766048275
 30
0.0
 11
153.1041980382706
 21
91.01221766048275
 31
0.0
  0
LINE
  5
81
330
21
100
AcDbEntity
  8
1
100
AcDbLine
 10
188.0527261756706
 20
91.01221766048275
 30
0.0
 11
206.6541980382717
 21
91.01221766048275
 31
0.0
  0
LINE
  5
82
330
21
100
AcDbEntity
  8
1
100
AcDbLine
 10
187.428462106971
 20
92.26221766048229
 30
0.0
 11
187.3284621069706
 21
92.26221766048229
 31
0.0
  0
LINE
  5
83
330
21
100
AcDbEntity
  8
1
100
AcDbLine
 10
153.8284621069706
 20
92.26221766048229
 30
0.0
 11
153.7284621069703
 21
92.26221766048229
 31
0.0
  0
LINE
  5
84
330
21
100
AcDbEntity
  8
1
100
AcDbLine
 10
137.8784621069717
 20
128.3622176604827
 30
0.0
 11
137.8784621069717
 21
128.0622176604825
 31
0.0
  0
LINE
  5
85
330
21
100
AcDbEntity
  8
1
100
AcDbLine
 10
134.3784621069717
 20
128.3622176604827
 30
0.0
 11
134.5027261756713
 21
128.6622176604824
 31
0.0
  0
LINE
  5
86
330
21
100
AcDbEntity
  8
1
100
AcDbLine
 10
134.3784621069717
 20
128.0622176604825
 30
0.0
 11
134.5027261756713
 21
127.7622176604827
 31
0.0
  0
LINE
  5
87
330
21
100
AcDbEntity
  8
1
100
AcDbLine
 10
153.2284621069703
 20
165.7122176604826
 30
0.0
 11
153.1041980382706
 21
165.4122176604824
 31
0.0
  0
LINE
  5
88
330
21
100
AcDbEntity
  8
1
100
AcDbLine
 10
153.2284621069703
 20
90.71221766048257
 30
0.0
 11
153.1041980382706
 21
91.01221766048275
 31
0.0
  0
LINE
  5
89
330
21
100
AcDbEntity
  8
1
100
AcDbLine
 10
134.3784621069717
 20
128.0622176604825
 30
0.0
 11
134.0784621069706
 21
127.7622176604827
 31
0.0
  0
LINE
  5
8A
330
21
100
AcDbEntity
  8
1
100
AcDbLine
 10
134.5027261756713
 20
127.7622176604827
 30
0.0
 11
134.3784621069717
 21
127.6379535917827
 31
0.0
  0
LINE
  5
8B
330
21
100
AcDbEntity
  8
1
100
AcDbLine
 10
134.0784621069706
 20
128.6622176604824
 30
0.0
 11
134.3784621069717
 21
128.3622176604827
 31
0.0
  0
LINE
  5
8C
330
21
100
AcDbEntity
  8
1
100
AcDbLine
 10
134.3784621069717
 20
128.7864817291825
 30
0.0
 11
134.5027261756713
 21
128.6622176604824
 31
0.0
  0
LINE
  5
8D
330
21
100
AcDbEntity
  8
1
100
AcDbLine
 10
131.0784621069706
 20
88.21221766048257
 30
0.0
 11
131.28556888817
 21
88.71221766048257
 31
0.0
  0
LINE
  5
8E
330
21
100
AcDbEntity
  8
1
100
AcDbLine
 10
210.5784621069706
 20
167.7122176604826
 30
0.0
 11
210.0784621069706
 21
167.5051108792827
 31
0.0
  0
LINE
  5
8F
330
21
100
AcDbEntity
  8
1
100
AcDbLine
 10
207.0784621069706
 20
165.4122176604824
 30
0.0
 11
206.7784621069713
 21
165.2879535917828
 31
0.0
  0
LINE
  5
90
330
21
100
AcDbEntity
  8
1
100
AcDbLine
 10
210.5784621069706
 20
88.71221766048257
 30
0.0
 11
210.0784621069706
 21
88.91932444168242
 31
0.0
  0
LINE
  5
91
330
21
100
AcDbEntity
  8
1
100
AcDbLine
 10
207.0784621069706
 20
91.01221766048275
 30
0.0
 11
206.7784621069713
 21
91.13648172918238
 31
0.0
  0
LINE
  5
92
330
21
100
AcDbEntity
  8
1
100
AcDbLine
 10
131.0784621069706
 20
168.2122176604826
 30
0.0
 11
131.28556888817
 21
167.7122176604826
 31
0.0
  0
LINE
  5
93
330
21
100
AcDbEntity
  8
1
100
AcDbLine
 10
153.2284621069703
 20
165.2879535917828
 30
0.0
 11
153.2284621069703
 21
128.6622176604824
 31
0.0
  0
LINE
  5
94
330
21
100
AcDbEntity
  8
1
100
AcDbLine
 10
153.2284621069703
 20
127.6379535917827
 30
0.0
 11
153.2284621069703
 21
91.13648172918238
 31
0.0
  0
LINE
  5
95
330
21
100
AcDbEntity
  8
1
100
AcDbLine
 10
153.5284621069713
 20
165.4122176604824
 30
0.0
 11
153.5284621069713
 21
128.6622176604824
 31
0.0
  0
LINE
  5
96
330
21
100
AcDbEntity
  8
1
100
AcDbLine
 10
153.5284621069713
 20
127.7622176604827
 30
0.0
 11
153.5284621069713
 21
91.01221766048275
 31
0.0
  0
LINE
  5
97
330
21
100
AcDbEntity
  8
1
100
AcDbLine
 10
153.7284621069703
 20
90.71221766048257
 30
0.0
 11
153.7284621069703
 21
92.26221766048229
 31
0.0
  0
LINE
  5
98
330
21
100
AcDbEntity
  8
1
100
AcDbLine
 10
153.7284621069703
 20
164.1622176604824
 30
0.0
 11
153.7284621069703
 21
165.7122176604826
 31
0.0
  0
LINE
  5
99
330
21
100
AcDbEntity
  8
1
100
AcDbLine
 10
153.8284621069706
 20
90.36221766048266
 30
0.0
 11
153.8284621069706
 21
166.0622176604825
 31
0.0
  0
LINE
  5
9A
330
21
100
AcDbEntity
  8
1
100
AcDbLine
 10
134.3784621069717
 20
90.71221766048257
 30
0.0
 11
134.5027261756713
 21
91.01221766048275
 31
0.0
  0
LINE
  5
9B
330
21
100
AcDbEntity
  8
1
100
AcDbLine
 10
153.2284621069703
 20
128.0622176604825
 30
0.0
 11
153.1041980382706
 21
127.7622176604827
 31
0.0
  0
LINE
  5
9C
330
21
100
AcDbEntity
  8
1
100
AcDbLine
 10
134.3784621069717
 20
165.7122176604826
 30
0.0
 11
134.5027261756713
 21
165.4122176604824
 31
0.0
  0
LINE
  5
9D
330
21
100
AcDbEntity
  8
1
100
AcDbLine
 10
187.928462106971
 20
165.7122176604826
 30
0.0
 11
187.6284621069717
 21
165.4122176604824
 31
0.0
  0
LINE
  5
9E
330
21
100
AcDbEntity
  8
1
100
AcDbLine
 10
188.0527261756706
 20
165.4122176604824
 30
0.0
 11
187.928462106971
 21
165.2879535917828
 31
0.0
  0
LINE
  5
9F
330
21
100
AcDbEntity
  8
1
100
AcDbLine
 10
153.5284621069713
 20
128.6622176604824
 30
0.0
 11
153.2284621069703
 21
128.3622176604827
 31
0.0
  0
LINE
  5
A0
330
21
100
AcDbEntity
  8
1
100
AcDbLine
 10
134.0784621069706
 20
128.6622176604824
 30
0.0
 11
134.3784621069717
 21
128.7864817291825
 31
0.0
  0
LINE
  5
A1
330
21
100
AcDbEntity
  8
1
100
AcDbLine
 10
134.0784621069706
 20
127.7622176604827
 30
0.0
 11
134.3784621069717
 21
127.6379535917827
 31
0.0
  0
LINE
  5
A2
330
21
100
AcDbEntity
  8
1
100
AcDbLine
 10
187.6284621069717
 20
91.01221766048275
 30
0.0
 11
187.928462106971
 21
90.71221766048257
 31
0.0
  0
LINE
  5
A3
330
21
100
AcDbEntity
  8
1
100
AcDbLine
 10
187.928462106971
 20
91.13648172918238
 30
0.0
 11
188.0527261756706
 21
91.01221766048275
 31
0.0
  0
LINE
  5
A4
330
21
100
AcDbEntity
  8
1
100
AcDbLine
 10
153.2284621069703
 20
127.6379535917827
 30
0.0
 11
153.1041980382706
 21
127.7622176604827
 31
0.0
  0
LINE
  5
A5
330
21
100
AcDbEntity
  8
1
100
AcDbLine
 10
153.5284621069713
 20
127.7622176604827
 30
0.0
 11
153.2284621069703
 21
128.0622176604825
 31
0.0
  0
LINE
  5
A6
330
21
100
AcDbEntity
  8
1
100
AcDbLine
 10
153.3784621069717
 20
128.5122176604827
 30
0.0
 11
153.2284621069703
 21
128.6622176604824
 31
0.0
  0
LINE
  5
A7
330
21
100
AcDbEntity
  8
1
100
AcDbLine
 10
153.5284621069713
 20
127.7622176604827
 30
0.0
 11
153.2284621069703
 21
127.6379535917827
 31
0.0
  0
LINE
  5
A8
330
21
100
AcDbEntity
  8
1
100
AcDbLine
 10
206.6541980382717
 20
127.7622176604827
 30
0.0
 11
188.0527261756706
 21
127.7622176604827
 31
0.0
  0
LINE
  5
A9
330
21
100
AcDbEntity
  8
1
100
AcDbLine
 10
153.1041980382706
 20
127.7622176604827
 30
0.0
 11
134.5027261756713
 21
127.7622176604827
 31
0.0
  0
LINE
  5
AA
330
21
100
AcDbEntity
  8
1
100
AcDbLine
 10
206.7784621069713
 20
128.0622176604825
 30
0.0
 11
187.928462106971
 21
128.0622176604825
 31
0.0
  0
LINE
  5
AB
330
21
100
AcDbEntity
  8
1
100
AcDbLine
 10
153.2284621069703
 20
128.0622176604825
 30
0.0
 11
134.3784621069717
 21
128.0622176604825
 31
0.0
  0
LINE
  5
AC
330
21
100
AcDbEntity
  8
1
100
AcDbLine
 10
135.3784621069717
 20
128.2122176604826
 30
0.0
 11
137.8784621069717
 21
128.2122176604826
 31
0.0
  0
LINE
  5
AD
330
21
100
AcDbEntity
  8
1
100
AcDbLine
 10
134.3784621069717
 20
128.3622176604827
 30
0.0
 11
153.2284621069703
 21
128.3622176604827
 31
0.0
  0
LINE
  5
AE
330
21
100
AcDbEntity
  8
1
100
AcDbLine
 10
187.928462106971
 20
128.3622176604827
 30
0.0
 11
206.7784621069713
 21
128.3622176604827
 31
0.0
  0
LINE
  5
AF
330
21
100
AcDbEntity
  8
1
100
AcDbLine
 10
134.5027261756713
 20
128.6622176604824
 30
0.0
 11
153.2284621069703
 21
128.6622176604824
 31
0.0
  0
LINE
  5
B0
330
21
100
AcDbEntity
  8
1
100
AcDbLine
 10
188.0527261756706
 20
128.6622176604824
 30
0.0
 11
206.7784621069713
 21
128.6622176604824
 31
0.0
  0
LINE
  5
B1
330
21
100
AcDbEntity
  8
1
100
AcDbLine
 10
187.6284621069717
 20
128.6622176604824
 30
0.0
 11
187.928462106971
 21
128.7864817291825
 31
0.0
  0
LINE
  5
B2
330
21
100
AcDbEntity
  8
1
100
AcDbLine
 10
187.6284621069717
 20
127.7622176604827
 30
0.0
 11
187.928462106971
 21
127.6379535917827
 31
0.0
  0
LINE
  5
B3
330
21
100
AcDbEntity
  8
1
100
AcDbLine
 10
187.928462106971
 20
128.0622176604825
 30
0.0
 11
187.6284621069717
 21
127.7622176604827
 31
0.0
  0
LINE
  5
B4
330
21
100
AcDbEntity
  8
1
100
AcDbLine
 10
188.0527261756706
 20
127.7622176604827
 30
0.0
 11
187.928462106971
 21
127.6379535917827
 31
0.0
  0
LINE
  5
B5
330
21
100
AcDbEntity
  8
1
100
AcDbLine
 10
187.6284621069717
 20
128.6622176604824
 30
0.0
 11
187.928462106971
 21
128.3622176604827
 31
0.0
  0
LINE
  5
B6
330
21
100
AcDbEntity
  8
1
100
AcDbLine
 10
187.928462106971
 20
128.7864817291825
 30
0.0
 11
188.0527261756706
 21
128.6622176604824
 31
0.0
  0
LINE
  5
B7
330
21
100
AcDbEntity
  8
1
100
AcDbLine
 10
187.3284621069706
 20
90.36221766048266
 30
0.0
 11
187.3284621069706
 21
166.0622176604825
 31
0.0
  0
LINE
  5
B8
330
21
100
AcDbEntity
  8
1
100
AcDbLine
 10
187.928462106971
 20
128.3622176604827
 30
0.0
 11
188.0527261756706
 21
128.6622176604824
 31
0.0
  0
LINE
  5
B9
330
21
100
AcDbEntity
  8
1
100
AcDbLine
 10
153.1041980382706
 20
91.01221766048275
 30
0.0
 11
153.2284621069703
 21
91.13648172918238
 31
0.0
  0
LINE
  5
BA
330
21
100
AcDbEntity
  8
1
100
AcDbLine
 10
153.2284621069703
 20
90.71221766048257
 30
0.0
 11
153.5284621069713
 21
91.01221766048275
 31
0.0
  0
LINE
  5
BB
330
21
100
AcDbEntity
  8
1
100
AcDbLine
 10
207.0784621069706
 20
127.7622176604827
 30
0.0
 11
206.7784621069713
 21
127.6379535917827
 31
0.0
  0
LINE
  5
BC
330
21
100
AcDbEntity
  8
1
100
AcDbLine
 10
153.2284621069703
 20
165.2879535917828
 30
0.0
 11
153.1041980382706
 21
165.4122176604824
 31
0.0
  0
LINE
  5
BD
330
21
100
AcDbEntity
  8
1
100
AcDbLine
 10
153.5284621069713
 20
165.4122176604824
 30
0.0
 11
153.2284621069703
 21
165.7122176604826
 31
0.0
  0
LINE
  5
BE
330
21
100
AcDbEntity
  8
1
100
AcDbLine
 10
187.928462106971
 20
128.0622176604825
 30
0.0
 11
188.0527261756706
 21
127.7622176604827
 31
0.0
  0
LINE
  5
BF
330
21
100
AcDbEntity
  8
1
100
AcDbLine
 10
187.428462106971
 20
165.7122176604826
 30
0.0
 11
187.428462106971
 21
164.1622176604824
 31
0.0
  0
LINE
  5
C0
330
21
100
AcDbEntity
  8
1
100
AcDbLine
 10
187.428462106971
 20
92.26221766048229
 30
0.0
 11
187.428462106971
 21
90.71221766048257
 31
0.0
  0
LINE
  5
C1
330
21
100
AcDbEntity
  8
1
100
AcDbLine
 10
187.6284621069717
 20
91.01221766048275
 30
0.0
 11
187.6284621069717
 21
127.7622176604827
 31
0.0
  0
LINE
  5
C2
330
21
100
AcDbEntity
  8
1
100
AcDbLine
 10
187.6284621069717
 20
128.6622176604824
 30
0.0
 11
187.6284621069717
 21
165.4122176604824
 31
0.0
  0
LINE
  5
C3
330
21
100
AcDbEntity
  8
1
100
AcDbLine
 10
187.928462106971
 20
91.13648172918238
 30
0.0
 11
187.928462106971
 21
127.6379535917827
 31
0.0
  0
LINE
  5
C4
330
21
100
AcDbEntity
  8
1
100
AcDbLine
 10
187.928462106971
 20
128.7864817291825
 30
0.0
 11
187.928462106971
 21
165.2879535917828
 31
0.0
  0
LINE
  5
C5
330
21
100
AcDbEntity
  8
1
100
AcDbLine
 10
206.7784621069713
 20
165.7122176604826
 30
0.0
 11
206.6541980382717
 21
165.4122176604824
 31
0.0
  0
LINE
  5
C6
330
21
100
AcDbEntity
  8
1
100
AcDbLine
 10
134.0784621069706
 20
91.01221766048275
 30
0.0
 11
134.3784621069717
 21
91.13648172918238
 31
0.0
  0
LINE
  5
C7
330
21
100
AcDbEntity
  8
1
100
AcDbLine
 10
134.0784621069706
 20
165.4122176604824
 30
0.0
 11
134.3784621069717
 21
165.2879535917828
 31
0.0
  0
LINE
  5
C8
330
21
100
AcDbEntity
  8
1
100
AcDbLine
 10
206.7784621069713
 20
90.71221766048257
 30
0.0
 11
206.6541980382717
 21
91.01221766048275
 31
0.0
  0
LINE
  5
C9
330
21
100
AcDbEntity
  8
1
100
AcDbLine
 10
210.0784621069706
 20
168.2122176604826
 30
0.0
 11
209.8713553257712
 21
167.7122176604826
 31
0.0
  0
LINE
  5
CA
330
21
100
AcDbEntity
  8
1
100
AcDbLine
 10
130.5784621069706
 20
88.71221766048257
 30
0.0
 11
131.0784621069706
 21
88.91932444168242
 31
0.0
  0
LINE
  5
CB
330
21
100
AcDbEntity
  8
1
100
AcDbLine
 10
130.5784621069706
 20
167.7122176604826
 30
0.0
 11
131.0784621069706
 21
167.5051108792827
 31
0.0
  0
LINE
  5
CC
330
21
100
AcDbEntity
  8
1
100
AcDbLine
 10
210.0784621069706
 20
88.21221766048257
 30
0.0
 11
209.8713553257712
 21
88.71221766048257
 31
0.0
  0
LINE
  5
CD
330
21
100
AcDbEntity
  8
1
100
AcDbLine
 10
207.0784621069706
 20
128.6622176604824
 30
0.0
 11
206.7784621069713
 21
128.3622176604827
 31
0.0
  0
LINE
  5
CE
330
21
100
AcDbEntity
  8
1
100
AcDbLine
 10
206.7784621069713
 20
127.6379535917827
 30
0.0
 11
206.6541980382717
 21
127.7622176604827
 31
0.0
  0
LINE
  5
CF
330
21
100
AcDbEntity
  8
1
100
AcDbLine
 10
207.0784621069706
 20
127.7622176604827
 30
0.0
 11
206.7784621069713
 21
128.0622176604825
 31
0.0
  0
LINE
  5
D0
330
21
100
AcDbEntity
  8
1
100
AcDbLine
 10
206.928462106971
 20
128.5122176604827
 30
0.0
 11
206.7784621069713
 21
128.6622176604824
 31
0.0
  0
LINE
  5
D1
330
21
100
AcDbEntity
  8
1
100
AcDbLine
 10
203.2784621069713
 20
128.3622176604827
 30
0.0
 11
203.2784621069713
 21
128.0622176604825
 31
0.0
  0
LINE
  5
D2
330
21
100
AcDbEntity
  8
1
100
AcDbLine
 10
187.928462106971
 20
90.71221766048257
 30
0.0
 11
188.0527261756706
 21
91.01221766048275
 31
0.0
  0
LINE
  5
D3
330
21
100
AcDbEntity
  8
1
100
AcDbLine
 10
187.928462106971
 20
165.7122176604826
 30
0.0
 11
188.0527261756706
 21
165.4122176604824
 31
0.0
  0
LINE
  5
D4
330
21
100
AcDbEntity
  8
1
100
AcDbLine
 10
206.7784621069713
 20
165.2879535917828
 30
0.0
 11
206.7784621069713
 21
128.6622176604824
 31
0.0
  0
LINE
  5
D5
330
21
100
AcDbEntity
  8
1
100
AcDbLine
 10
206.7784621069713
 20
127.6379535917827
 30
0.0
 11
206.7784621069713
 21
91.13648172918238
 31
0.0
  0
LINE
  5
D6
330
21
100
AcDbEntity
  8
1
100
AcDbLine
 10
207.0784621069706
 20
165.4122176604824
 30
0.0
 11
207.0784621069706
 21
128.6622176604824
 31
0.0
  0
LINE
  5
D7
330
21
100
AcDbEntity
  8
1
100
AcDbLine
 10
207.0784621069706
 20
127.7622176604827
 30
0.0
 11
207.0784621069706
 21
91.01221766048275
 31
0.0
  0
LINE
  5
D8
330
21
100
AcDbEntity
  8
1
100
AcDbLine
 10
206.7784621069713
 20
128.0622176604825
 30
0.0
 11
206.6541980382717
 21
127.7622176604827
 31
0.0
  0
LINE
  5
D9
330
21
100
AcDbEntity
  8
1
100
AcDbLine
 10
153.7284621069703
 20
164.1622176604824
 30
0.0
 11
153.8284621069706
 21
164.1622176604824
 31
0.0
  0
LINE
  5
DA
330
21
100
AcDbEntity
  8
1
100
AcDbLine
 10
187.3284621069706
 20
164.1622176604824
 30
0.0
 11
187.428462106971
 21
164.1622176604824
 31
0.0
  0
LINE
  5
DB
330
21
100
AcDbEntity
  8
1
100
AcDbLine
 10
208.0784621069706
 20
91.71221766048257
 30
0.0
 11
208.0784621069706
 21
164.7122176604826
 31
0.0
  0
LINE
  5
DC
330
21
100
AcDbEntity
  8
1
100
AcDbLine
 10
208.3284621069706
 20
90.71221766048257
 30
0.0
 11
208.3284621069706
 21
165.7122176604826
 31
0.0
  0
LINE
  5
DD
330
21
100
AcDbEntity
  8
1
100
AcDbLine
 10
210.0784621069706
 20
88.91932444168242
 30
0.0
 11
210.0784621069706
 21
167.5051108792827
 31
0.0
  0
LINE
  5
DE
330
21
100
AcDbEntity
  8
1
100
AcDbLine
 10
210.5784621069706
 20
88.71221766048257
 30
0.0
 11
210.5784621069706
 21
167.7122176604826
 31
0.0
  0
LINE
  5
DF
330
21
100
AcDbEntity
  8
1
100
AcDbLine
 10
187.6284621069717
 20
91.01221766048275
 30
0.0
 11
187.928462106971
 21
91.13648172918238
 31
0.0
  0
LINE
  5
E0
330
21
100
AcDbEntity
  8
1
100
AcDbLine
 10
206.6541980382717
 20
165.4122176604824
 30
0.0
 11
188.0527261756706
 21
165.4122176604824
 31
0.0
  0
LINE
  5
E1
330
21
100
AcDbEntity
  8
1
100
AcDbLine
 10
153.1041980382706
 20
165.4122176604824
 30
0.0
 11
134.5027261756713
 21
165.4122176604824
 31
0.0
  0
LINE
  5
E2
330
21
100
AcDbEntity
  8
1
100
AcDbLine
 10
187.3284621069706
 20
165.6696601179824
 30
0.0
 11
153.8284621069706
 21
165.6696601179824
 31
0.0
  0
LINE
  5
E3
330
21
100
AcDbEntity
  8
1
100
AcDbLine
 10
207.0784621069706
 20
165.7122176604826
 30
0.0
 11
187.428462106971
 21
165.7122176604826
 31
0.0
  0
LINE
  5
E4
330
21
100
AcDbEntity
  8
1
100
AcDbLine
 10
153.7284621069703
 20
165.7122176604826
 30
0.0
 11
134.0784621069706
 21
165.7122176604826
 31
0.0
  0
LINE
  5
E5
330
21
100
AcDbEntity
  8
1
100
AcDbLine
 10
187.3284621069706
 20
165.9696144264826
 30
0.0
 11
153.8284621069706
 21
165.9696144264826
 31
0.0
  0
LINE
  5
E6
330
21
100
AcDbEntity
  8
1
100
AcDbLine
 10
187.3284621069706
 20
166.0622176604825
 30
0.0
 11
153.8284621069706
 21
166.0622176604825
 31
0.0
  0
LINE
  5
E7
330
21
100
AcDbEntity
  8
1
100
AcDbLine
 10
207.8284621069706
 20
166.2122176604826
 30
0.0
 11
133.3284621069706
 21
166.2122176604826
 31
0.0
  0
LINE
  5
E8
330
21
100
AcDbEntity
  8
1
100
AcDbLine
 10
209.8713553257712
 20
167.7122176604826
 30
0.0
 11
131.28556888817
 21
167.7122176604826
 31
0.0
  0
LINE
  5
E9
330
21
100
AcDbEntity
  8
1
100
AcDbLine
 10
210.0784621069706
 20
168.2122176604826
 30
0.0
 11
131.0784621069706
 21
168.2122176604826
 31
0.0
  0
LINE
  5
EA
330
21
100
AcDbEntity
  8
1
100
AcDbLine
 10
187.6284621069717
 20
165.4122176604824
 30
0.0
 11
187.928462106971
 21
165.2879535917828
 31
0.0
  0
LINE
  5
EB
330
21
100
AcDbEntity
  8
1
100
AcDbLine
 10
206.6541980382717
 20
91.01221766048275
 30
0.0
 11
206.7784621069713
 21
91.13648172918238
 31
0.0
  0
LINE
  5
EC
330
21
100
AcDbEntity
  8
1
100
AcDbLine
 10
206.7784621069713
 20
90.71221766048257
 30
0.0
 11
207.0784621069706
 21
91.01221766048275
 31
0.0
  0
LINE
  5
ED
330
21
100
AcDbEntity
  8
1
100
AcDbLine
 10
206.7784621069713
 20
165.2879535917828
 30
0.0
 11
206.6541980382717
 21
165.4122176604824
 31
0.0
  0
LINE
  5
EE
330
21
100
AcDbEntity
  8
1
100
AcDbLine
 10
207.0784621069706
 20
165.4122176604824
 30
0.0
 11
206.7784621069713
 21
165.7122176604826
 31
0.0
  0
LINE
  5
EF
330
21
100
AcDbEntity
  8
1
100
AcDbLine
 10
209.8713553257712
 20
88.71221766048257
 30
0.0
 11
210.0784621069706
 21
88.91932444168242
 31
0.0
  0
LINE
  5
F0
330
21
100
AcDbEntity
  8
1
100
AcDbLine
 10
210.0784621069706
 20
88.21221766048257
 30
0.0
 11
210.5784621069706
 21
88.71221766048257
 31
0.0
  0
LINE
  5
F1
330
21
100
AcDbEntity
  8
1
100
AcDbLine
 10
210.0784621069706
 20
167.5051108792827
 30
0.0
 11
209.8713553257712
 21
167.7122176604826
 31
0.0
  0
LINE
  5
F2
330
21
100
AcDbEntity
  8
1
100
AcDbLine
 10
210.5784621069706
 20
167.7122176604826
 30
0.0
 11
210.0784621069706
 21
168.2122176604826
 31
0.0
  0
LINE
  5
F3
330
21
100
AcDbEntity
  8
1
100
AcDbLine
 10
292.2527996069712
 20
88.21221766048257
 30
0.0
 11
283.7527996069712
 21
88.21221766048257
 31
0.0
  0
LINE
  5
F4
330
21
100
AcDbEntity
  8
1
100
AcDbLine
 10
292.2527996069712
 20
88.71221766048257
 30
0.0
 11
283.7527996069712
 21
88.71221766048257
 31
0.0
  0
LINE
  5
F5
330
21
100
AcDbEntity
  8
1
100
AcDbLine
 10
283.6527996069708
 20
102.9622176604826
 30
0.0
 11
281.6527996069708
 21
102.9622176604826
 31
0.0
  0
LINE
  5
F6
330
21
100
AcDbEntity
  8
1
100
AcDbLine
 10
283.6527996069708
 20
103.8408973168825
 30
0.0
 11
281.6527996069708
 21
103.8408973168825
 31
0.0
  0
LINE
  5
F7
330
21
100
AcDbEntity
  8
1
100
AcDbLine
 10
266.6397111327715
 20
104.6469999432825
 30
0.0
 11
281.6527996069708
 21
104.2538683859825
 31
0.0
  0
LINE
  5
F8
330
21
100
AcDbEntity
  8
1
100
AcDbLine
 10
272.2756019039716
 20
150.1646074845826
 30
0.0
 11
267.1218207330712
 21
148.4240588924827
 31
0.0
  0
LINE
  5
F9
330
21
100
AcDbEntity
  8
1
100
AcDbLine
 10
272.2756019039716
 20
147.6897337504824
 30
0.0
 11
267.467549403571
 21
146.0659455582827
 31
0.0
  0
LINE
  5
FA
330
21
100
AcDbEntity
  8
1
100
AcDbLine
 10
283.5677283568712
 20
105.8440567539824
 30
0.0
 11
282.1855352439707
 21
105.5997172232824
 31
0.0
  0
LINE
  5
FB
330
21
100
AcDbEntity
  8
1
100
AcDbLine
 10
267.9105898835714
 20
107.7339912271827
 30
0.0
 11
266.6397111327715
 21
107.7575231265823
 31
0.0
  0
LINE
  5
FC
330
21
100
AcDbEntity
  8
1
100
AcDbLine
 10
266.6397111327715
 20
105.2327015214823
 30
0.0
 11
281.6527996069708
 21
104.8394759959824
 31
0.0
  0
LINE
  5
FD
330
21
100
AcDbEntity
  8
1
100
AcDbLine
 10
281.9161991603705
 20
105.5817407867826
 30
0.0
 11
274.3339889152703
 21
105.8863676208825
 31
0.0
  0
LINE
  5
FE
330
21
100
AcDbEntity
  8
1
100
AcDbLine
 10
272.2756019039716
 20
106.2598278363826
 30
0.0
 11
267.1218207330712
 21
108.0003764284825
 31
0.0
  0
LINE
  5
FF
330
21
100
AcDbEntity
  8
1
100
AcDbLine
 10
272.2756019039716
 20
108.7347015704827
 30
0.0
 11
267.467549403571
 21
110.3584897626824
 31
0.0
  0
LINE
  5
100
330
21
100
AcDbEntity
  8
1
100
AcDbLine
 10
268.44950669227
 20
146.0841277177824
 30
0.0
 11
272.4657606845703
 21
147.4405076260828
 31
0.0
  0
LINE
  5
101
330
21
100
AcDbEntity
  8
1
100
AcDbLine
 10
283.5677283568712
 20
108.3189304881826
 30
0.0
 11
282.1855352439707
 21
108.0745909573825
 31
0.0
  0
LINE
  5
102
330
21
100
AcDbEntity
  8
1
100
AcDbLine
 10
282.1475146103712
 20
108.3594173901824
 30
0.0
 11
283.4707141068702
 21
108.5933282243823
 31
0.0
  0
LINE
  5
103
330
21
100
AcDbEntity
  8
1
100
AcDbLine
 10
266.1527996069708
 20
108.6813850492827
 30
0.0
 11
266.5527996069704
 21
108.6813850492827
 31
0.0
  0
LINE
  5
104
330
21
100
AcDbEntity
  8
1
100
AcDbLine
 10
266.1527996069708
 20
110.0461011369825
 30
0.0
 11
266.5527996069704
 21
110.0461011369825
 31
0.0
  0
LINE
  5
105
330
21
100
AcDbEntity
  8
1
100
AcDbLine
 10
266.6397111327715
 20
110.3738182169827
 30
0.0
 11
281.6527996069708
 21
110.0958322269826
 31
0.0
  0
LINE
  5
106
330
21
100
AcDbEntity
  8
1
100
AcDbLine
 10
281.9161991603705
 20
108.0566145209823
 30
0.0
 11
274.3339889152703
 21
108.3612413550827
 31
0.0
  0
LINE
  5
107
330
21
100
AcDbEntity
  8
1
100
AcDbLine
 10
274.3370216038711
 20
108.6444184081824
 30
0.0
 11
281.8781785268711
 21
108.3414409536826
 31
0.0
  0
LINE
  5
108
330
21
100
AcDbEntity
  8
1
100
AcDbLine
 10
268.44950669227
 20
110.3403076031827
 30
0.0
 11
272.4657606845703
 21
108.9839276948824
 31
0.0
  0
LINE
  5
109
330
21
100
AcDbEntity
  8
1
100
AcDbLine
 10
283.6527996069708
 20
111.0835380040826
 30
0.0
 11
281.6527996069708
 21
111.0835380040826
 31
0.0
  0
LINE
  5
10A
330
21
100
AcDbEntity
  8
1
100
AcDbLine
 10
283.7527996069712
 20
113.2048583475826
 30
0.0
 11
281.6527996069708
 21
113.2048583475826
 31
0.0
  0
LINE
  5
10B
330
21
100
AcDbEntity
  8
1
100
AcDbLine
 10
266.6397111327715
 20
112.8987556970824
 30
0.0
 11
281.6527996069708
 21
112.7359152742824
 31
0.0
  0
LINE
  5
10C
330
21
100
AcDbEntity
  8
1
100
AcDbLine
 10
266.1527996069708
 20
105.1468286057825
 30
0.0
 11
266.1527996069708
 21
151.2776067151826
 31
0.0
  0
LINE
  5
10D
330
21
100
AcDbEntity
  8
1
100
AcDbLine
 10
266.5527996069704
 20
108.6384427299827
 30
0.0
 11
266.5527996069704
 21
110.3875129738826
 31
0.0
  0
LINE
  5
10E
330
21
100
AcDbEntity
  8
1
100
AcDbLine
 10
266.5527996069704
 20
146.0369223470825
 30
0.0
 11
266.5527996069704
 21
147.7859925909825
 31
0.0
  0
LINE
  5
10F
330
21
100
AcDbEntity
  8
1
100
AcDbLine
 10
266.6397111327715
 20
105.2327015214823
 30
0.0
 11
266.6397111327715
 21
107.7575231265823
 31
0.0
  0
LINE
  5
110
330
21
100
AcDbEntity
  8
1
100
AcDbLine
 10
266.6397111327715
 20
110.3738182169827
 30
0.0
 11
266.6397111327715
 21
112.8987556970824
 31
0.0
  0
LINE
  5
111
330
21
100
AcDbEntity
  8
1
100
AcDbLine
 10
266.6397111327715
 20
114.3124846437827
 30
0.0
 11
266.6397111327715
 21
142.1119506771824
 31
0.0
  0
LINE
  5
112
330
21
100
AcDbEntity
  8
1
100
AcDbLine
 10
266.6397111327715
 20
143.5257954987824
 30
0.0
 11
266.6397111327715
 21
146.0506171039824
 31
0.0
  0
LINE
  5
113
330
21
100
AcDbEntity
  8
1
100
AcDbLine
 10
266.6397111327715
 20
148.6669121943823
 30
0.0
 11
266.6397111327715
 21
151.1918496744825
 31
0.0
  0
LINE
  5
114
330
21
100
AcDbEntity
  8
1
100
AcDbLine
 10
267.1218207330712
 20
108.0003764284825
 30
0.0
 11
267.1218207330712
 21
110.3648913586826
 31
0.0
  0
LINE
  5
115
330
21
100
AcDbEntity
  8
1
100
AcDbLine
 10
267.1218207330712
 20
146.0595439622825
 30
0.0
 11
267.1218207330712
 21
148.4240588924827
 31
0.0
  0
LINE
  5
116
330
21
100
AcDbEntity
  8
1
100
AcDbLine
 10
266.1527996069708
 20
114.3124846437827
 30
0.0
 11
266.6397111327715
 21
114.3124846437827
 31
0.0
  0
LINE
  5
117
330
21
100
AcDbEntity
  8
1
100
AcDbLine
 10
266.6397111327715
 20
114.3124846437827
 30
0.0
 11
281.6527996069708
 21
114.1496442209827
 31
0.0
  0
LINE
  5
118
330
21
100
AcDbEntity
  8
1
100
AcDbLine
 10
272.2756019039716
 20
106.2598278363826
 30
0.0
 11
272.2756019039716
 21
108.7347015704827
 31
0.0
  0
LINE
  5
119
330
21
100
AcDbEntity
  8
1
100
AcDbLine
 10
272.2756019039716
 20
147.6897337504824
 30
0.0
 11
272.2756019039716
 21
150.1646074845826
 31
0.0
  0
LINE
  5
11A
330
21
100
AcDbEntity
  8
1
100
AcDbLine
 10
274.3339889152703
 20
105.8863676208825
 30
0.0
 11
274.3339889152703
 21
108.3612413550827
 31
0.0
  0
LINE
  5
11B
330
21
100
AcDbEntity
  8
1
100
AcDbLine
 10
274.3339889152703
 20
148.0631939658824
 30
0.0
 11
274.3339889152703
 21
150.5380677000826
 31
0.0
  0
LINE
  5
11C
330
21
100
AcDbEntity
  8
1
100
AcDbLine
 10
283.4707141068702
 20
147.8311070965824
 30
0.0
 11
283.5677283568712
 21
148.1055048327826
 31
0.0
  0
LINE
  5
11D
330
21
100
AcDbEntity
  8
1
100
AcDbLine
 10
283.5677283568712
 20
108.3189304881826
 30
0.0
 11
283.4707141068702
 21
108.5933282243823
 31
0.0
  0
LINE
  5
11E
330
21
100
AcDbEntity
  8
1
100
AcDbLine
 10
281.6527996069708
 20
153.4622176604826
 30
0.0
 11
281.6527996069708
 21
150.8321120562823
 31
0.0
  0
LINE
  5
11F
330
21
100
AcDbEntity
  8
1
100
AcDbLine
 10
281.6527996069708
 20
148.0739394261827
 30
0.0
 11
281.6527996069708
 21
108.3504958947824
 31
0.0
  0
LINE
  5
120
330
21
100
AcDbEntity
  8
1
100
AcDbLine
 10
281.6527996069708
 20
105.5923232646824
 30
0.0
 11
281.6527996069708
 21
102.9622176604826
 31
0.0
  0
LINE
  5
121
330
21
100
AcDbEntity
  8
1
100
AcDbLine
 10
281.9161991603705
 20
105.5817407867826
 30
0.0
 11
281.9161991603705
 21
108.0566145209823
 31
0.0
  0
LINE
  5
122
330
21
100
AcDbEntity
  8
1
100
AcDbLine
 10
281.9161991603705
 20
148.3678207999824
 30
0.0
 11
281.9161991603705
 21
150.8426945341826
 31
0.0
  0
LINE
  5
123
330
21
100
AcDbEntity
  8
1
100
AcDbLine
 10
282.1855352439707
 20
105.5997172232824
 30
0.0
 11
282.1855352439707
 21
108.0745909573825
 31
0.0
  0
LINE
  5
124
330
21
100
AcDbEntity
  8
1
100
AcDbLine
 10
282.1855352439707
 20
148.3498443635826
 30
0.0
 11
282.1855352439707
 21
150.8247180976823
 31
0.0
  0
LINE
  5
125
330
21
100
AcDbEntity
  8
1
100
AcDbLine
 10
283.6527996069708
 20
102.9622176604826
 30
0.0
 11
283.6527996069708
 21
105.8689161216826
 31
0.0
  0
LINE
  5
126
330
21
100
AcDbEntity
  8
1
100
AcDbLine
 10
283.6527996069708
 20
108.5962578382823
 30
0.0
 11
283.6527996069708
 21
147.8281774826823
 31
0.0
  0
LINE
  5
127
330
21
100
AcDbEntity
  8
1
100
AcDbLine
 10
283.6527996069708
 20
150.5555191992826
 30
0.0
 11
283.6527996069708
 21
153.4622176604826
 31
0.0
  0
LINE
  5
128
330
21
100
AcDbEntity
  8
1
100
AcDbLine
 10
283.7527996069712
 20
88.21221766048257
 30
0.0
 11
283.7527996069712
 21
168.2122176604826
 31
0.0
  0
LINE
  5
129
330
21
100
AcDbEntity
  8
1
100
AcDbLine
 10
292.2527996069712
 20
168.2122176604826
 30
0.0
 11
292.2527996069712
 21
88.21221766048257
 31
0.0
  0
LINE
  5
12A
330
21
100
AcDbEntity
  8
1
100
AcDbLine
 10
292.7527996069712
 20
167.7122176604826
 30
0.0
 11
292.7527996069712
 21
88.71221766048257
 31
0.0
  0
LINE
  5
12B
330
21
100
AcDbEntity
  8
1
100
AcDbLine
 10
266.6397111327715
 20
142.1119506771824
 30
0.0
 11
281.6527996069708
 21
142.2747910999824
 31
0.0
  0
LINE
  5
12C
330
21
100
AcDbEntity
  8
1
100
AcDbLine
 10
266.1527996069708
 20
142.1119506771824
 30
0.0
 11
266.6397111326714
 21
142.1119506763825
 31
0.0
  0
LINE
  5
12D
330
21
100
AcDbEntity
  8
1
100
AcDbLine
 10
283.7527996069712
 20
143.2195769733826
 30
0.0
 11
281.6527996069708
 21
143.2195769733826
 31
0.0
  0
LINE
  5
12E
330
21
100
AcDbEntity
  8
1
100
AcDbLine
 10
281.6527996069708
 20
146.3286030939826
 30
0.0
 11
266.6397111327715
 21
146.0506171039824
 31
0.0
  0
LINE
  5
12F
330
21
100
AcDbEntity
  8
1
100
AcDbLine
 10
266.6397111327715
 20
143.5257954987824
 30
0.0
 11
281.6527996069708
 21
143.6885419534824
 31
0.0
  0
LINE
  5
130
330
21
100
AcDbEntity
  8
1
100
AcDbLine
 10
283.6527996069708
 20
145.3408973168825
 30
0.0
 11
281.6527996069708
 21
145.3408973168825
 31
0.0
  0
LINE
  5
131
330
21
100
AcDbEntity
  8
1
100
AcDbLine
 10
266.1527996069708
 20
146.3783341839826
 30
0.0
 11
266.5527996069704
 21
146.3783341839826
 31
0.0
  0
LINE
  5
132
330
21
100
AcDbEntity
  8
1
100
AcDbLine
 10
274.3370216038711
 20
147.7800169127827
 30
0.0
 11
281.8781785268711
 21
148.0829943672825
 31
0.0
  0
LINE
  5
133
330
21
100
AcDbEntity
  8
1
100
AcDbLine
 10
281.9161991603705
 20
148.3678207999824
 30
0.0
 11
274.3339889152703
 21
148.0631939658824
 31
0.0
  0
LINE
  5
134
330
21
100
AcDbEntity
  8
1
100
AcDbLine
 10
266.6397111327715
 20
148.6669121943823
 30
0.0
 11
267.9105898835714
 21
148.6904440937824
 31
0.0
  0
LINE
  5
135
330
21
100
AcDbEntity
  8
1
100
AcDbLine
 10
266.1527996069708
 20
147.7430502716825
 30
0.0
 11
266.5527996069704
 21
147.7430502716825
 31
0.0
  0
LINE
  5
136
330
21
100
AcDbEntity
  8
1
100
AcDbLine
 10
282.1475146103712
 20
148.0650179307827
 30
0.0
 11
283.4707141068702
 21
147.8311070965824
 31
0.0
  0
LINE
  5
137
330
21
100
AcDbEntity
  8
1
100
AcDbLine
 10
283.5677283568712
 20
148.1055048327826
 30
0.0
 11
282.1855352439707
 21
148.3498443635826
 31
0.0
  0
LINE
  5
138
330
21
100
AcDbEntity
  8
1
100
AcDbLine
 10
281.9161991603705
 20
150.8426945341826
 30
0.0
 11
274.3339889152703
 21
150.5380677000826
 31
0.0
  0
LINE
  5
139
330
21
100
AcDbEntity
  8
1
100
AcDbLine
 10
266.6397111327715
 20
151.1918496744825
 30
0.0
 11
281.6527996069708
 21
151.5849812317824
 31
0.0
  0
LINE
  5
13A
330
21
100
AcDbEntity
  8
1
100
AcDbLine
 10
266.6397111327715
 20
151.7774353776827
 30
0.0
 11
281.6527996069708
 21
152.1705669349826
 31
0.0
  0
LINE
  5
13B
330
21
100
AcDbEntity
  8
1
100
AcDbLine
 10
283.6527996069708
 20
152.5835380040826
 30
0.0
 11
281.6527996069708
 21
152.5835380040826
 31
0.0
  0
LINE
  5
13C
330
21
100
AcDbEntity
  8
1
100
AcDbLine
 10
283.5677283568712
 20
150.5803785669823
 30
0.0
 11
282.1855352439707
 21
150.8247180976823
 31
0.0
  0
LINE
  5
13D
330
21
100
AcDbEntity
  8
1
100
AcDbLine
 10
283.6527996069708
 20
153.4622176604826
 30
0.0
 11
281.6527996069708
 21
153.4622176604826
 31
0.0
  0
LINE
  5
13E
330
21
100
AcDbEntity
  8
1
100
AcDbLine
 10
292.2527996069712
 20
88.21221766048257
 30
0.0
 11
292.7527996069712
 21
88.71221766048257
 31
0.0
  0
LINE
  5
13F
330
21
100
AcDbEntity
  8
1
100
AcDbLine
 10
292.2527996069712
 20
167.7122176604826
 30
0.0
 11
283.7527996069712
 21
167.7122176604826
 31
0.0
  0
LINE
  5
140
330
21
100
AcDbEntity
  8
1
100
AcDbLine
 10
292.2527996069712
 20
168.2122176604826
 30
0.0
 11
292.7527996069712
 21
167.7122176604826
 31
0.0
  0
LINE
  5
141
330
21
100
AcDbEntity
  8
1
100
AcDbLine
 10
292.2527996069712
 20
88.71221766048257
 30
0.0
 11
292.7527996069712
 21
88.91932444168242
 31
0.0
  0
LINE
  5
142
330
21
100
AcDbEntity
  8
1
100
AcDbLine
 10
292.2527996069712
 20
168.2122176604826
 30
0.0
 11
283.7527996069712
 21
168.2122176604826
 31
0.0
  0
LINE
  5
143
330
21
100
AcDbEntity
  8
1
100
AcDbLine
 10
292.2527996069712
 20
167.7122176604826
 30
0.0
 11
292.7527996069712
 21
167.5051108792827
 31
0.0
  0
LINE
  5
144
330
21
100
AcDbEntity
  8
1
100
AcDbLine
 10
66.34439960697091
 20
167.7122176604826
 30
0.0
 11
65.84439960697091
 21
167.5051108792827
 31
0.0
  0
LINE
  5
145
330
21
100
AcDbEntity
  8
1
100
AcDbLine
 10
66.34439960697091
 20
88.21221766048257
 30
0.0
 11
74.84439960697091
 21
88.21221766048257
 31
0.0
  0
LINE
  5
146
330
21
100
AcDbEntity
  8
1
100
AcDbLine
 10
66.34439960697091
 20
88.71221766048257
 30
0.0
 11
74.84439960697091
 21
88.71221766048257
 31
0.0
  0
LINE
  5
147
330
21
100
AcDbEntity
  8
1
100
AcDbLine
 10
66.34439960697091
 20
88.71221766048257
 30
0.0
 11
65.84439960697091
 21
88.91932444168242
 31
0.0
  0
LINE
  5
148
330
21
100
AcDbEntity
  8
1
100
AcDbLine
 10
66.34439960697091
 20
168.2122176604826
 30
0.0
 11
65.84439960697091
 21
167.7122176604826
 31
0.0
  0
LINE
  5
149
330
21
100
AcDbEntity
  8
1
100
AcDbLine
 10
66.34439960697091
 20
88.21221766048257
 30
0.0
 11
65.84439960697091
 21
88.71221766048257
 31
0.0
  0
LINE
  5
14A
330
21
100
AcDbEntity
  8
1
100
AcDbLine
 10
91.9574880811706
 20
104.6469999432825
 30
0.0
 11
76.94439960697127
 21
104.2538683859825
 31
0.0
  0
LINE
  5
14B
330
21
100
AcDbEntity
  8
1
100
AcDbLine
 10
76.94439960697127
 20
102.9622176604826
 30
0.0
 11
74.94439960697127
 21
102.9622176604826
 31
0.0
  0
LINE
  5
14C
330
21
100
AcDbEntity
  8
1
100
AcDbLine
 10
74.94439960697127
 20
103.8408973168825
 30
0.0
 11
76.94439960697127
 21
103.8408973168825
 31
0.0
  0
LINE
  5
14D
330
21
100
AcDbEntity
  8
1
100
AcDbLine
 10
76.68100005357155
 20
105.5817407867826
 30
0.0
 11
84.26321029866995
 21
105.8863676208825
 31
0.0
  0
LINE
  5
14E
330
21
100
AcDbEntity
  8
1
100
AcDbLine
 10
91.9574880811706
 20
105.2325856464827
 30
0.0
 11
76.94439960697127
 21
104.8394540891827
 31
0.0
  0
LINE
  5
14F
330
21
100
AcDbEntity
  8
1
100
AcDbLine
 10
91.9574880811706
 20
107.7575231265823
 30
0.0
 11
90.68660933037063
 21
107.7339912271827
 31
0.0
  0
LINE
  5
150
330
21
100
AcDbEntity
  8
1
100
AcDbLine
 10
75.02947085707092
 20
105.8440567539824
 30
0.0
 11
76.41166396997141
 21
105.5997172232824
 31
0.0
  0
LINE
  5
151
330
21
100
AcDbEntity
  8
1
100
AcDbLine
 10
76.68100005357155
 20
108.0566145209823
 30
0.0
 11
84.26321029866995
 21
108.3612413550827
 31
0.0
  0
LINE
  5
152
330
21
100
AcDbEntity
  8
1
100
AcDbLine
 10
84.26017761007097
 20
108.6444184081824
 30
0.0
 11
76.71902068707095
 21
108.3414409536826
 31
0.0
  0
LINE
  5
153
330
21
100
AcDbEntity
  8
1
100
AcDbLine
 10
76.94439960697127
 20
110.0958322269826
 30
0.0
 11
91.9574880811706
 21
110.3738182169827
 31
0.0
  0
LINE
  5
154
330
21
100
AcDbEntity
  8
1
100
AcDbLine
 10
92.44439960697127
 20
108.6813850492827
 30
0.0
 11
92.04439960697164
 21
108.6813850492827
 31
0.0
  0
LINE
  5
155
330
21
100
AcDbEntity
  8
1
100
AcDbLine
 10
92.44439960697127
 20
110.0461011369825
 30
0.0
 11
92.04439960697164
 21
110.0461011369825
 31
0.0
  0
LINE
  5
156
330
21
100
AcDbEntity
  8
1
100
AcDbLine
 10
75.02947085707092
 20
108.3189304881826
 30
0.0
 11
76.41166396997141
 21
108.0745909573825
 31
0.0
  0
LINE
  5
157
330
21
100
AcDbEntity
  8
1
100
AcDbLine
 10
76.44968460357086
 20
108.3594173901824
 30
0.0
 11
75.12648510707004
 21
108.5933282243823
 31
0.0
  0
LINE
  5
158
330
21
100
AcDbEntity
  8
1
100
AcDbLine
 10
91.9574880811706
 20
112.8986398221823
 30
0.0
 11
76.94439960697127
 21
112.7358933674827
 31
0.0
  0
LINE
  5
159
330
21
100
AcDbEntity
  8
1
100
AcDbLine
 10
74.94439960697127
 20
111.0835380040826
 30
0.0
 11
76.94439960697127
 21
111.0835380040826
 31
0.0
  0
LINE
  5
15A
330
21
100
AcDbEntity
  8
1
100
AcDbLine
 10
74.84439960697091
 20
113.2048583475826
 30
0.0
 11
76.94439960697127
 21
113.2048583475826
 31
0.0
  0
LINE
  5
15B
330
21
100
AcDbEntity
  8
1
100
AcDbLine
 10
65.84439960697091
 20
88.71221766048257
 30
0.0
 11
65.84439960697091
 21
167.7122176604826
 31
0.0
  0
LINE
  5
15C
330
21
100
AcDbEntity
  8
1
100
AcDbLine
 10
66.34439960697091
 20
88.21221766048257
 30
0.0
 11
66.34439960697091
 21
168.2122176604826
 31
0.0
  0
LINE
  5
15D
330
21
100
AcDbEntity
  8
1
100
AcDbLine
 10
91.9574880811706
 20
114.3124846437827
 30
0.0
 11
76.94439960697127
 21
114.1496442209827
 31
0.0
  0
LINE
  5
15E
330
21
100
AcDbEntity
  8
1
100
AcDbLine
 10
92.44439960697127
 20
114.3124846437827
 30
0.0
 11
91.95748808127064
 21
114.3124846445826
 31
0.0
  0
LINE
  5
15F
330
21
100
AcDbEntity
  8
1
100
AcDbLine
 10
74.84439960697091
 20
88.21221766048257
 30
0.0
 11
74.84439960697091
 21
168.2122176604826
 31
0.0
  0
LINE
  5
160
330
21
100
AcDbEntity
  8
1
100
AcDbLine
 10
74.94439960697127
 20
153.4622176604826
 30
0.0
 11
74.94439960697127
 21
150.5555191992826
 31
0.0
  0
LINE
  5
161
330
21
100
AcDbEntity
  8
1
100
AcDbLine
 10
74.94439960697127
 20
147.8281774826823
 30
0.0
 11
74.94439960697127
 21
108.5962578382823
 31
0.0
  0
LINE
  5
162
330
21
100
AcDbEntity
  8
1
100
AcDbLine
 10
74.94439960697127
 20
105.8689161216826
 30
0.0
 11
74.94439960697127
 21
102.9622176604826
 31
0.0
  0
LINE
  5
163
330
21
100
AcDbEntity
  8
1
100
AcDbLine
 10
76.41166396997141
 20
150.8247180976823
 30
0.0
 11
76.41166396997141
 21
148.3498443635826
 31
0.0
  0
LINE
  5
164
330
21
100
AcDbEntity
  8
1
100
AcDbLine
 10
76.41166396997141
 20
108.0745909573825
 30
0.0
 11
76.41166396997141
 21
105.5997172232824
 31
0.0
  0
LINE
  5
165
330
21
100
AcDbEntity
  8
1
100
AcDbLine
 10
76.68100005357155
 20
150.8426945341826
 30
0.0
 11
76.68100005357155
 21
148.3678207999824
 31
0.0
  0
LINE
  5
166
330
21
100
AcDbEntity
  8
1
100
AcDbLine
 10
76.68100005357155
 20
108.0566145209823
 30
0.0
 11
76.68100005357155
 21
105.5817407867826
 31
0.0
  0
LINE
  5
167
330
21
100
AcDbEntity
  8
1
100
AcDbLine
 10
76.94439960697127
 20
102.9622176604826
 30
0.0
 11
76.94439960697127
 21
105.5923232646824
 31
0.0
  0
LINE
  5
168
330
21
100
AcDbEntity
  8
1
100
AcDbLine
 10
76.94439960697127
 20
108.3504958947824
 30
0.0
 11
76.94439960697127
 21
148.0739394261827
 31
0.0
  0
LINE
  5
169
330
21
100
AcDbEntity
  8
1
100
AcDbLine
 10
76.94439960697127
 20
150.8321120562823
 30
0.0
 11
76.94439960697127
 21
153.4622176604826
 31
0.0
  0
LINE
  5
16A
330
21
100
AcDbEntity
  8
1
100
AcDbLine
 10
75.12648510707004
 20
108.5933282243823
 30
0.0
 11
75.02947085707092
 21
108.3189304881826
 31
0.0
  0
LINE
  5
16B
330
21
100
AcDbEntity
  8
1
100
AcDbLine
 10
75.02947085707092
 20
148.1055048327826
 30
0.0
 11
75.12648510707004
 21
147.8311070965824
 31
0.0
  0
LINE
  5
16C
330
21
100
AcDbEntity
  8
1
100
AcDbLine
 10
84.26321029866995
 20
150.5380677000826
 30
0.0
 11
84.26321029866995
 21
148.0631939658824
 31
0.0
  0
LINE
  5
16D
330
21
100
AcDbEntity
  8
1
100
AcDbLine
 10
84.26321029866995
 20
108.3612413550827
 30
0.0
 11
84.26321029866995
 21
105.8863676208825
 31
0.0
  0
LINE
  5
16E
330
21
100
AcDbEntity
  8
1
100
AcDbLine
 10
86.32159730997046
 20
150.1646074845826
 30
0.0
 11
86.32159730997046
 21
147.6897337504824
 31
0.0
  0
LINE
  5
16F
330
21
100
AcDbEntity
  8
1
100
AcDbLine
 10
86.32159730997046
 20
108.7347015704827
 30
0.0
 11
86.32159730997046
 21
106.2598278363826
 31
0.0
  0
LINE
  5
170
330
21
100
AcDbEntity
  8
1
100
AcDbLine
 10
91.47537848087086
 20
148.4240588924827
 30
0.0
 11
91.47537848087086
 21
146.0595439622825
 31
0.0
  0
LINE
  5
171
330
21
100
AcDbEntity
  8
1
100
AcDbLine
 10
91.47537848087086
 20
110.3648913586826
 30
0.0
 11
91.47537848087086
 21
108.0003764284825
 31
0.0
  0
LINE
  5
172
330
21
100
AcDbEntity
  8
1
100
AcDbLine
 10
91.9574880811706
 20
151.1918496744825
 30
0.0
 11
91.9574880811706
 21
148.6669121943823
 31
0.0
  0
LINE
  5
173
330
21
100
AcDbEntity
  8
1
100
AcDbLine
 10
91.9574880811706
 20
146.0506171039824
 30
0.0
 11
91.9574880811706
 21
143.5256796238828
 31
0.0
  0
LINE
  5
174
330
21
100
AcDbEntity
  8
1
100
AcDbLine
 10
91.9574880811706
 20
142.1119506771824
 30
0.0
 11
91.9574880811706
 21
114.3124846437827
 31
0.0
  0
LINE
  5
175
330
21
100
AcDbEntity
  8
1
100
AcDbLine
 10
91.9574880811706
 20
112.8986398221823
 30
0.0
 11
91.9574880811706
 21
110.3738182169827
 31
0.0
  0
LINE
  5
176
330
21
100
AcDbEntity
  8
1
100
AcDbLine
 10
91.9574880811706
 20
107.7575231265823
 30
0.0
 11
91.9574880811706
 21
105.2325856464827
 31
0.0
  0
LINE
  5
177
330
21
100
AcDbEntity
  8
1
100
AcDbLine
 10
92.04439960697164
 20
147.7859925909825
 30
0.0
 11
92.04439960697164
 21
146.0369223470825
 31
0.0
  0
LINE
  5
178
330
21
100
AcDbEntity
  8
1
100
AcDbLine
 10
92.04439960697164
 20
110.3875129738826
 30
0.0
 11
92.04439960697164
 21
108.6384427299827
 31
0.0
  0
LINE
  5
179
330
21
100
AcDbEntity
  8
1
100
AcDbLine
 10
92.44439960697127
 20
105.1468286057825
 30
0.0
 11
92.44439960697127
 21
151.2776067151826
 31
0.0
  0
LINE
  5
17A
330
21
100
AcDbEntity
  8
1
100
AcDbLine
 10
92.44439960697127
 20
142.1119506771824
 30
0.0
 11
91.9574880811706
 21
142.1119506771824
 31
0.0
  0
LINE
  5
17B
330
21
100
AcDbEntity
  8
1
100
AcDbLine
 10
74.84439960697091
 20
143.2195769733826
 30
0.0
 11
76.94439960697127
 21
143.2195769733826
 31
0.0
  0
LINE
  5
17C
330
21
100
AcDbEntity
  8
1
100
AcDbLine
 10
91.9574880811706
 20
142.1119506771824
 30
0.0
 11
76.94439960697127
 21
142.2747910999824
 31
0.0
  0
LINE
  5
17D
330
21
100
AcDbEntity
  8
1
100
AcDbLine
 10
74.94439960697127
 20
145.3408973168825
 30
0.0
 11
76.94439960697127
 21
145.3408973168825
 31
0.0
  0
LINE
  5
17E
330
21
100
AcDbEntity
  8
1
100
AcDbLine
 10
92.44439960697127
 20
146.3783341839826
 30
0.0
 11
92.04439960697164
 21
146.3783341839826
 31
0.0
  0
LINE
  5
17F
330
21
100
AcDbEntity
  8
1
100
AcDbLine
 10
91.9574880811706
 20
143.5256796238828
 30
0.0
 11
76.94439960697127
 21
143.6885200466827
 31
0.0
  0
LINE
  5
180
330
21
100
AcDbEntity
  8
1
100
AcDbLine
 10
91.9574880811706
 20
146.0506171039824
 30
0.0
 11
76.94439960697127
 21
146.3286030939826
 31
0.0
  0
LINE
  5
181
330
21
100
AcDbEntity
  8
1
100
AcDbLine
 10
90.14769252167025
 20
110.3403076031827
 30
0.0
 11
86.13143852937174
 21
108.9839276948824
 31
0.0
  0
LINE
  5
182
330
21
100
AcDbEntity
  8
1
100
AcDbLine
 10
86.32159730997046
 20
108.7347015704827
 30
0.0
 11
91.12964981037112
 21
110.3584897626824
 31
0.0
  0
LINE
  5
183
330
21
100
AcDbEntity
  8
1
100
AcDbLine
 10
76.44968460357086
 20
148.0650179307827
 30
0.0
 11
75.12648510707004
 21
147.8311070965824
 31
0.0
  0
LINE
  5
184
330
21
100
AcDbEntity
  8
1
100
AcDbLine
 10
75.02947085707092
 20
148.1055048327826
 30
0.0
 11
76.41166396997141
 21
148.3498443635826
 31
0.0
  0
LINE
  5
185
330
21
100
AcDbEntity
  8
1
100
AcDbLine
 10
92.44439960697127
 20
147.7430502716825
 30
0.0
 11
92.04439960697164
 21
147.7430502716825
 31
0.0
  0
LINE
  5
186
330
21
100
AcDbEntity
  8
1
100
AcDbLine
 10
90.68660933037063
 20
148.6904440937824
 30
0.0
 11
91.9574880811706
 21
148.6669121943823
 31
0.0
  0
LINE
  5
187
330
21
100
AcDbEntity
  8
1
100
AcDbLine
 10
84.26017761007097
 20
147.7800169127827
 30
0.0
 11
76.71902068707095
 21
148.0829943672825
 31
0.0
  0
LINE
  5
188
330
21
100
AcDbEntity
  8
1
100
AcDbLine
 10
76.68100005357155
 20
148.3678207999824
 30
0.0
 11
84.26321029866995
 21
148.0631939658824
 31
0.0
  0
LINE
  5
189
330
21
100
AcDbEntity
  8
1
100
AcDbLine
 10
90.14769252167025
 20
146.0841277177824
 30
0.0
 11
86.13143852937174
 21
147.4405076260828
 31
0.0
  0
LINE
  5
18A
330
21
100
AcDbEntity
  8
1
100
AcDbLine
 10
86.32159730997046
 20
147.6897337504824
 30
0.0
 11
91.12964981037112
 21
146.0659455582827
 31
0.0
  0
LINE
  5
18B
330
21
100
AcDbEntity
  8
1
100
AcDbLine
 10
86.32159730997046
 20
106.2598278363826
 30
0.0
 11
91.47537848087086
 21
108.0003764284825
 31
0.0
  0
LINE
  5
18C
330
21
100
AcDbEntity
  8
1
100
AcDbLine
 10
75.02947085707092
 20
150.5803785669823
 30
0.0
 11
76.41166396997141
 21
150.8247180976823
 31
0.0
  0
LINE
  5
18D
330
21
100
AcDbEntity
  8
1
100
AcDbLine
 10
74.94439960697127
 20
152.5835380040826
 30
0.0
 11
76.94439960697127
 21
152.5835380040826
 31
0.0
  0
LINE
  5
18E
330
21
100
AcDbEntity
  8
1
100
AcDbLine
 10
91.9574880811706
 20
151.1918496744825
 30
0.0
 11
76.94439960697127
 21
151.5849812317824
 31
0.0
  0
LINE
  5
18F
330
21
100
AcDbEntity
  8
1
100
AcDbLine
 10
91.9574880811706
 20
151.7774353776827
 30
0.0
 11
76.94439960697127
 21
152.1705669349826
 31
0.0
  0
LINE
  5
190
330
21
100
AcDbEntity
  8
1
100
AcDbLine
 10
76.68100005357155
 20
150.8426945341826
 30
0.0
 11
84.26321029866995
 21
150.5380677000826
 31
0.0
  0
LINE
  5
191
330
21
100
AcDbEntity
  8
1
100
AcDbLine
 10
86.32159730997046
 20
150.1646074845826
 30
0.0
 11
91.47537848087086
 21
148.4240588924827
 31
0.0
  0
LINE
  5
192
330
21
100
AcDbEntity
  8
1
100
AcDbLine
 10
74.94439960697127
 20
153.4622176604826
 30
0.0
 11
76.94439960697127
 21
153.4622176604826
 31
0.0
  0
LINE
  5
193
330
21
100
AcDbEntity
  8
1
100
AcDbLine
 10
66.34439960697091
 20
167.7122176604826
 30
0.0
 11
74.84439960697091
 21
167.7122176604826
 31
0.0
  0
LINE
  5
194
330
21
100
AcDbEntity
  8
1
100
AcDbLine
 10
66.34439960697091
 20
168.2122176604826
 30
0.0
 11
74.84439960697091
 21
168.2122176604826
 31
0.0
  0
LINE
  5
195
330
21
100
AcDbEntity
  8
1
100
AcDbLine
 10
130.5784621069706
 20
31.56005516048253
 30
0.0
 11
130.5784621069706
 21
40.06005516048253
 31
0.0
  0
LINE
  5
196
330
21
100
AcDbEntity
  8
1
100
AcDbLine
 10
131.0784621069706
 20
31.56005516048253
 30
0.0
 11
131.0784621069706
 21
40.06005516048253
 31
0.0
  0
LINE
  5
197
330
21
100
AcDbEntity
  8
1
100
AcDbLine
 10
131.0784621069706
 20
31.56005516048253
 30
0.0
 11
131.28556888817
 21
31.06005516048253
 31
0.0
  0
LINE
  5
198
330
21
100
AcDbEntity
  8
1
100
AcDbLine
 10
130.5784621069706
 20
31.56005516048253
 30
0.0
 11
131.0784621069706
 21
31.06005516048253
 31
0.0
  0
LINE
  5
199
330
21
100
AcDbEntity
  8
1
100
AcDbLine
 10
145.3284621069706
 20
40.16005516048244
 30
0.0
 11
145.3284621069706
 21
42.16005516048244
 31
0.0
  0
LINE
  5
19A
330
21
100
AcDbEntity
  8
1
100
AcDbLine
 10
146.2071417633706
 20
40.16005516048244
 30
0.0
 11
146.2071417633706
 21
42.16005516048244
 31
0.0
  0
LINE
  5
19B
330
21
100
AcDbEntity
  8
1
100
AcDbLine
 10
147.013244389771
 20
57.17314363468267
 30
0.0
 11
146.6201128324701
 21
42.16005516048244
 31
0.0
  0
LINE
  5
19C
330
21
100
AcDbEntity
  8
1
100
AcDbLine
 10
150.1002356736717
 20
55.90226488388271
 30
0.0
 11
150.1237675730699
 21
57.17314363468267
 31
0.0
  0
LINE
  5
19D
330
21
100
AcDbEntity
  8
1
100
AcDbLine
 10
147.5989459679713
 20
57.17314363468267
 30
0.0
 11
147.2057204424709
 21
42.16005516048244
 31
0.0
  0
LINE
  5
19E
330
21
100
AcDbEntity
  8
1
100
AcDbLine
 10
147.9479852332715
 20
41.89665560708272
 30
0.0
 11
148.2526120673701
 21
49.47886585218248
 31
0.0
  0
LINE
  5
19F
330
21
100
AcDbEntity
  8
1
100
AcDbLine
 10
148.6260722828702
 20
51.53725286348254
 30
0.0
 11
150.366620874971
 21
56.69103403438248
 31
0.0
  0
LINE
  5
1A0
330
21
100
AcDbEntity
  8
1
100
AcDbLine
 10
151.1009460169716
 20
51.53725286348254
 30
0.0
 11
152.7247342091705
 21
56.34530536388229
 31
0.0
  0
LINE
  5
1A1
330
21
100
AcDbEntity
  8
1
100
AcDbLine
 10
148.21030120047
 20
40.24512641058254
 30
0.0
 11
147.96596166977
 21
41.62731952348258
 31
0.0
  0
LINE
  5
1A2
330
21
100
AcDbEntity
  8
1
100
AcDbLine
 10
151.0476294957716
 20
57.66005516048244
 30
0.0
 11
151.0476294957716
 21
57.26005516048235
 31
0.0
  0
LINE
  5
1A3
330
21
100
AcDbEntity
  8
1
100
AcDbLine
 10
152.4123455834706
 20
57.26005516048235
 30
0.0
 11
152.4123455834706
 21
57.66005516048244
 31
0.0
  0
LINE
  5
1A4
330
21
100
AcDbEntity
  8
1
100
AcDbLine
 10
152.7400626634717
 20
57.17314363468267
 30
0.0
 11
152.4620766734715
 21
42.16005516048244
 31
0.0
  0
LINE
  5
1A5
330
21
100
AcDbEntity
  8
1
100
AcDbLine
 10
150.4228589674713
 20
41.89665560708272
 30
0.0
 11
150.7274858015717
 21
49.47886585218248
 31
0.0
  0
LINE
  5
1A6
330
21
100
AcDbEntity
  8
1
100
AcDbLine
 10
151.010662854671
 20
49.47583316358259
 30
0.0
 11
150.7076854001716
 21
41.93467624058258
 31
0.0
  0
LINE
  5
1A7
330
21
100
AcDbEntity
  8
1
100
AcDbLine
 10
152.7065520496708
 20
55.36334807518233
 30
0.0
 11
151.3501721413704
 21
51.34709408288245
 31
0.0
  0
LINE
  5
1A8
330
21
100
AcDbEntity
  8
1
100
AcDbLine
 10
150.6851749346715
 20
40.24512641058254
 30
0.0
 11
150.4408354038715
 21
41.62731952348258
 31
0.0
  0
LINE
  5
1A9
330
21
100
AcDbEntity
  8
1
100
AcDbLine
 10
150.72566183667
 20
41.66534015708248
 30
0.0
 11
150.9595726708703
 21
40.34214066058257
 31
0.0
  0
LINE
  5
1AA
330
21
100
AcDbEntity
  8
1
100
AcDbLine
 10
153.4497824505706
 20
40.16005516048244
 30
0.0
 11
153.4497824505706
 21
42.16005516048244
 31
0.0
  0
LINE
  5
1AB
330
21
100
AcDbEntity
  8
1
100
AcDbLine
 10
155.5711027940706
 20
40.06005516048253
 30
0.0
 11
155.5711027940706
 21
42.16005516048244
 31
0.0
  0
LINE
  5
1AC
330
21
100
AcDbEntity
  8
1
100
AcDbLine
 10
155.2650001435704
 20
57.17314363468267
 30
0.0
 11
155.1021597207709
 21
42.16005516048244
 31
0.0
  0
LINE
  5
1AD
330
21
100
AcDbEntity
  8
1
100
AcDbLine
 10
156.6787290902703
 20
57.66005516048244
 30
0.0
 11
156.6787290902703
 21
57.17314363468267
 31
0.0
  0
LINE
  5
1AE
330
21
100
AcDbEntity
  8
1
100
AcDbLine
 10
156.6787290902703
 20
57.17314363468267
 30
0.0
 11
156.5158886674708
 21
42.16005516048244
 31
0.0
  0
LINE
  5
1AF
330
21
100
AcDbEntity
  8
1
100
AcDbLine
 10
210.0784621069706
 20
31.06005516048253
 30
0.0
 11
131.0784621069706
 21
31.06005516048253
 31
0.0
  0
LINE
  5
1B0
330
21
100
AcDbEntity
  8
1
100
AcDbLine
 10
210.5784621069706
 20
31.56005516048253
 30
0.0
 11
130.5784621069706
 21
31.56005516048253
 31
0.0
  0
LINE
  5
1B1
330
21
100
AcDbEntity
  8
1
100
AcDbLine
 10
150.6851749346715
 20
40.24512641058254
 30
0.0
 11
150.9595726708703
 21
40.34214066058257
 31
0.0
  0
LINE
  5
1B2
330
21
100
AcDbEntity
  8
1
100
AcDbLine
 10
130.5784621069706
 20
40.06005516048253
 30
0.0
 11
210.5784621069706
 21
40.06005516048253
 31
0.0
  0
LINE
  5
1B3
330
21
100
AcDbEntity
  8
1
100
AcDbLine
 10
145.3284621069706
 20
40.16005516048244
 30
0.0
 11
148.2351605681706
 21
40.16005516048244
 31
0.0
  0
LINE
  5
1B4
330
21
100
AcDbEntity
  8
1
100
AcDbLine
 10
150.9625022847704
 20
40.16005516048244
 30
0.0
 11
190.1944219291709
 21
40.16005516048244
 31
0.0
  0
LINE
  5
1B5
330
21
100
AcDbEntity
  8
1
100
AcDbLine
 10
192.9217636457706
 20
40.16005516048244
 30
0.0
 11
195.8284621069706
 21
40.16005516048244
 31
0.0
  0
LINE
  5
1B6
330
21
100
AcDbEntity
  8
1
100
AcDbLine
 10
147.96596166977
 20
41.62731952348258
 30
0.0
 11
150.4408354038715
 21
41.62731952348258
 31
0.0
  0
LINE
  5
1B7
330
21
100
AcDbEntity
  8
1
100
AcDbLine
 10
190.7160888100716
 20
41.62731952348258
 30
0.0
 11
193.1909625441713
 21
41.62731952348258
 31
0.0
  0
LINE
  5
1B8
330
21
100
AcDbEntity
  8
1
100
AcDbLine
 10
147.9479852332715
 20
41.89665560708272
 30
0.0
 11
150.4228589674713
 21
41.89665560708272
 31
0.0
  0
LINE
  5
1B9
330
21
100
AcDbEntity
  8
1
100
AcDbLine
 10
190.7340652464718
 20
41.89665560708272
 30
0.0
 11
193.2089389806715
 21
41.89665560708272
 31
0.0
  0
LINE
  5
1BA
330
21
100
AcDbEntity
  8
1
100
AcDbLine
 10
195.8284621069706
 20
42.16005516048244
 30
0.0
 11
193.1983565027713
 21
42.16005516048244
 31
0.0
  0
LINE
  5
1BB
330
21
100
AcDbEntity
  8
1
100
AcDbLine
 10
190.4401838726717
 20
42.16005516048244
 30
0.0
 11
150.7167403412714
 21
42.16005516048244
 31
0.0
  0
LINE
  5
1BC
330
21
100
AcDbEntity
  8
1
100
AcDbLine
 10
147.95856771117
 20
42.16005516048244
 30
0.0
 11
145.3284621069706
 21
42.16005516048244
 31
0.0
  0
LINE
  5
1BD
330
21
100
AcDbEntity
  8
1
100
AcDbLine
 10
190.1973515430709
 20
40.34214066058257
 30
0.0
 11
190.4717492792715
 21
40.24512641058254
 31
0.0
  0
LINE
  5
1BE
330
21
100
AcDbEntity
  8
1
100
AcDbLine
 10
148.2526120673701
 20
49.47886585218248
 30
0.0
 11
150.7274858015717
 21
49.47886585218248
 31
0.0
  0
LINE
  5
1BF
330
21
100
AcDbEntity
  8
1
100
AcDbLine
 10
190.4294384123714
 20
49.47886585218248
 30
0.0
 11
192.9043121465711
 21
49.47886585218248
 31
0.0
  0
LINE
  5
1C0
330
21
100
AcDbEntity
  8
1
100
AcDbLine
 10
148.6260722828702
 20
51.53725286348254
 30
0.0
 11
151.1009460169716
 21
51.53725286348254
 31
0.0
  0
LINE
  5
1C1
330
21
100
AcDbEntity
  8
1
100
AcDbLine
 10
190.0559781969714
 20
51.53725286348254
 30
0.0
 11
192.5308519310711
 21
51.53725286348254
 31
0.0
  0
LINE
  5
1C2
330
21
100
AcDbEntity
  8
1
100
AcDbLine
 10
184.478195123671
 20
57.17314363468267
 30
0.0
 11
184.6410355464704
 21
42.16005516048244
 31
0.0
  0
LINE
  5
1C3
330
21
100
AcDbEntity
  8
1
100
AcDbLine
 10
184.478195123671
 20
57.66005516048244
 30
0.0
 11
184.4781951228706
 21
57.17314363478272
 31
0.0
  0
LINE
  5
1C4
330
21
100
AcDbEntity
  8
1
100
AcDbLine
 10
185.5858214198706
 20
40.06005516048253
 30
0.0
 11
185.5858214198706
 21
42.16005516048244
 31
0.0
  0
LINE
  5
1C5
330
21
100
AcDbEntity
  8
1
100
AcDbLine
 10
150.366620874971
 20
56.69103403438248
 30
0.0
 11
152.7311358051702
 21
56.69103403438248
 31
0.0
  0
LINE
  5
1C6
330
21
100
AcDbEntity
  8
1
100
AcDbLine
 10
188.425788408771
 20
56.69103403438248
 30
0.0
 11
190.7903033389703
 21
56.69103403438248
 31
0.0
  0
LINE
  5
1C7
330
21
100
AcDbEntity
  8
1
100
AcDbLine
 10
147.5989459679713
 20
57.17314363468267
 30
0.0
 11
150.1237675730699
 21
57.17314363468267
 31
0.0
  0
LINE
  5
1C8
330
21
100
AcDbEntity
  8
1
100
AcDbLine
 10
152.7400626634717
 20
57.17314363468267
 30
0.0
 11
155.2650001435704
 21
57.17314363468267
 31
0.0
  0
LINE
  5
1C9
330
21
100
AcDbEntity
  8
1
100
AcDbLine
 10
156.6787290902703
 20
57.17314363468267
 30
0.0
 11
184.478195123671
 21
57.17314363468267
 31
0.0
  0
LINE
  5
1CA
330
21
100
AcDbEntity
  8
1
100
AcDbLine
 10
185.8919240703708
 20
57.17314363468267
 30
0.0
 11
188.4168615504714
 21
57.17314363468267
 31
0.0
  0
LINE
  5
1CB
330
21
100
AcDbEntity
  8
1
100
AcDbLine
 10
191.0331566408713
 20
57.17314363468267
 30
0.0
 11
193.5580941209701
 21
57.17314363468267
 31
0.0
  0
LINE
  5
1CC
330
21
100
AcDbEntity
  8
1
100
AcDbLine
 10
151.0046871764716
 20
57.26005516048235
 30
0.0
 11
152.7537574203707
 21
57.26005516048235
 31
0.0
  0
LINE
  5
1CD
330
21
100
AcDbEntity
  8
1
100
AcDbLine
 10
188.4031667935706
 20
57.26005516048235
 30
0.0
 11
190.1522370374714
 21
57.26005516048235
 31
0.0
  0
LINE
  5
1CE
330
21
100
AcDbEntity
  8
1
100
AcDbLine
 10
147.5130730522706
 20
57.66005516048244
 30
0.0
 11
193.6438511616707
 21
57.66005516048244
 31
0.0
  0
LINE
  5
1CF
330
21
100
AcDbEntity
  8
1
100
AcDbLine
 10
188.6948475404715
 20
42.16005516048244
 30
0.0
 11
188.4168615504714
 21
57.17314363468267
 31
0.0
  0
LINE
  5
1D0
330
21
100
AcDbEntity
  8
1
100
AcDbLine
 10
185.8919240703708
 20
57.17314363468267
 30
0.0
 11
186.0547644931703
 21
42.16005516048244
 31
0.0
  0
LINE
  5
1D1
330
21
100
AcDbEntity
  8
1
100
AcDbLine
 10
187.7071417633706
 20
40.16005516048244
 30
0.0
 11
187.7071417633706
 21
42.16005516048244
 31
0.0
  0
LINE
  5
1D2
330
21
100
AcDbEntity
  8
1
100
AcDbLine
 10
188.7445786304706
 20
57.26005516048235
 30
0.0
 11
188.7445786304706
 21
57.66005516048244
 31
0.0
  0
LINE
  5
1D3
330
21
100
AcDbEntity
  8
1
100
AcDbLine
 10
190.1462613592703
 20
49.47583316358259
 30
0.0
 11
190.4492388137714
 21
41.93467624058258
 31
0.0
  0
LINE
  5
1D4
330
21
100
AcDbEntity
  8
1
100
AcDbLine
 10
190.7340652464718
 20
41.89665560708272
 30
0.0
 11
190.4294384123714
 21
49.47886585218248
 31
0.0
  0
LINE
  5
1D5
330
21
100
AcDbEntity
  8
1
100
AcDbLine
 10
191.0331566408713
 20
57.17314363468267
 30
0.0
 11
191.0566885402714
 21
55.90226488388271
 31
0.0
  0
LINE
  5
1D6
330
21
100
AcDbEntity
  8
1
100
AcDbLine
 10
190.1092947181714
 20
57.66005516048244
 30
0.0
 11
190.1092947181714
 21
57.26005516048235
 31
0.0
  0
LINE
  5
1D7
330
21
100
AcDbEntity
  8
1
100
AcDbLine
 10
190.4312623772712
 20
41.66534015708248
 30
0.0
 11
190.1973515430709
 21
40.34214066058257
 31
0.0
  0
LINE
  5
1D8
330
21
100
AcDbEntity
  8
1
100
AcDbLine
 10
190.4717492792715
 20
40.24512641058254
 30
0.0
 11
190.7160888100716
 21
41.62731952348258
 31
0.0
  0
LINE
  5
1D9
330
21
100
AcDbEntity
  8
1
100
AcDbLine
 10
188.4503721642704
 20
55.36334807518233
 30
0.0
 11
189.8067520725708
 21
51.34709408288245
 31
0.0
  0
LINE
  5
1DA
330
21
100
AcDbEntity
  8
1
100
AcDbLine
 10
190.0559781969714
 20
51.53725286348254
 30
0.0
 11
188.4321900047707
 21
56.34530536388229
 31
0.0
  0
LINE
  5
1DB
330
21
100
AcDbEntity
  8
1
100
AcDbLine
 10
193.2089389806715
 20
41.89665560708272
 30
0.0
 11
192.9043121465711
 21
49.47886585218248
 31
0.0
  0
LINE
  5
1DC
330
21
100
AcDbEntity
  8
1
100
AcDbLine
 10
193.5580941209701
 20
57.17314363468267
 30
0.0
 11
193.9512256782709
 21
42.16005516048244
 31
0.0
  0
LINE
  5
1DD
330
21
100
AcDbEntity
  8
1
100
AcDbLine
 10
194.1436798241702
 20
57.17314363468267
 30
0.0
 11
194.5368113814711
 21
42.16005516048244
 31
0.0
  0
LINE
  5
1DE
330
21
100
AcDbEntity
  8
1
100
AcDbLine
 10
194.9497824505706
 20
40.16005516048244
 30
0.0
 11
194.9497824505706
 21
42.16005516048244
 31
0.0
  0
LINE
  5
1DF
330
21
100
AcDbEntity
  8
1
100
AcDbLine
 10
192.9466230134713
 20
40.24512641058254
 30
0.0
 11
193.1909625441713
 21
41.62731952348258
 31
0.0
  0
LINE
  5
1E0
330
21
100
AcDbEntity
  8
1
100
AcDbLine
 10
192.5308519310711
 20
51.53725286348254
 30
0.0
 11
190.7903033389703
 21
56.69103403438248
 31
0.0
  0
LINE
  5
1E1
330
21
100
AcDbEntity
  8
1
100
AcDbLine
 10
195.8284621069706
 20
40.16005516048244
 30
0.0
 11
195.8284621069706
 21
42.16005516048244
 31
0.0
  0
LINE
  5
1E2
330
21
100
AcDbEntity
  8
1
100
AcDbLine
 10
210.0784621069706
 20
31.56005516048253
 30
0.0
 11
210.0784621069706
 21
40.06005516048253
 31
0.0
  0
LINE
  5
1E3
330
21
100
AcDbEntity
  8
1
100
AcDbLine
 10
210.5784621069706
 20
31.56005516048253
 30
0.0
 11
210.0784621069706
 21
31.06005516048253
 31
0.0
  0
LINE
  5
1E4
330
21
100
AcDbEntity
  8
1
100
AcDbLine
 10
210.5784621069706
 20
31.56005516048253
 30
0.0
 11
210.5784621069706
 21
40.06005516048253
 31
0.0
  0
LINE
  5
1E5
330
21
100
AcDbEntity
  8
1
100
AcDbLine
 10
210.0784621069706
 20
31.56005516048253
 30
0.0
 11
209.8713553257712
 21
31.06005516048253
 31
0.0
  0
LINE
  5
1E6
330
21
100
AcDbEntity
  8
1
100
AcDbLine
 10
130.5784621069706
 20
220.5876551604824
 30
0.0
 11
130.5784621069706
 21
212.0876551604824
 31
0.0
  0
LINE
  5
1E7
330
21
100
AcDbEntity
  8
1
100
AcDbLine
 10
131.0784621069706
 20
220.5876551604824
 30
0.0
 11
131.0784621069706
 21
212.0876551604824
 31
0.0
  0
LINE
  5
1E8
330
21
100
AcDbEntity
  8
1
100
AcDbLine
 10
131.0784621069706
 20
220.5876551604824
 30
0.0
 11
131.28556888817
 21
221.0876551604824
 31
0.0
  0
LINE
  5
1E9
330
21
100
AcDbEntity
  8
1
100
AcDbLine
 10
130.5784621069706
 20
220.5876551604824
 30
0.0
 11
131.0784621069706
 21
221.0876551604824
 31
0.0
  0
LINE
  5
1EA
330
21
100
AcDbEntity
  8
1
100
AcDbLine
 10
147.013244389771
 20
194.9745666862827
 30
0.0
 11
146.6201128324701
 21
209.987655160483
 31
0.0
  0
LINE
  5
1EB
330
21
100
AcDbEntity
  8
1
100
AcDbLine
 10
145.3284621069706
 20
211.987655160483
 30
0.0
 11
145.3284621069706
 21
209.987655160483
 31
0.0
  0
LINE
  5
1EC
330
21
100
AcDbEntity
  8
1
100
AcDbLine
 10
146.2071417633706
 20
211.987655160483
 30
0.0
 11
146.2071417633706
 21
209.987655160483
 31
0.0
  0
LINE
  5
1ED
330
21
100
AcDbEntity
  8
1
100
AcDbLine
 10
147.9479852332715
 20
210.2510547138827
 30
0.0
 11
148.2526120673701
 21
202.6688444687825
 31
0.0
  0
LINE
  5
1EE
330
21
100
AcDbEntity
  8
1
100
AcDbLine
 10
147.5988300929712
 20
194.9745666862827
 30
0.0
 11
147.2056985356703
 21
209.987655160483
 31
0.0
  0
LINE
  5
1EF
330
21
100
AcDbEntity
  8
1
100
AcDbLine
 10
150.1237675730699
 20
194.9745666862827
 30
0.0
 11
150.1002356736717
 21
196.2454454370827
 31
0.0
  0
LINE
  5
1F0
330
21
100
AcDbEntity
  8
1
100
AcDbLine
 10
148.21030120047
 20
211.9025839103824
 30
0.0
 11
147.96596166977
 21
210.5203907974828
 31
0.0
  0
LINE
  5
1F1
330
21
100
AcDbEntity
  8
1
100
AcDbLine
 10
148.6260722828702
 20
200.6104574574829
 30
0.0
 11
150.366620874971
 21
195.4566762865825
 31
0.0
  0
LINE
  5
1F2
330
21
100
AcDbEntity
  8
1
100
AcDbLine
 10
151.1009460169716
 20
200.6104574574829
 30
0.0
 11
152.7247342091705
 21
195.8024049570827
 31
0.0
  0
LINE
  5
1F3
330
21
100
AcDbEntity
  8
1
100
AcDbLine
 10
150.4228589674713
 20
210.2510547138827
 30
0.0
 11
150.7274858015717
 21
202.6688444687825
 31
0.0
  0
LINE
  5
1F4
330
21
100
AcDbEntity
  8
1
100
AcDbLine
 10
151.010662854671
 20
202.6718771573824
 30
0.0
 11
150.7076854001716
 21
210.2130340803824
 31
0.0
  0
LINE
  5
1F5
330
21
100
AcDbEntity
  8
1
100
AcDbLine
 10
152.4620766734715
 20
209.987655160483
 30
0.0
 11
152.7400626634717
 21
194.9745666862827
 31
0.0
  0
LINE
  5
1F6
330
21
100
AcDbEntity
  8
1
100
AcDbLine
 10
151.0476294957716
 20
194.4876551604825
 30
0.0
 11
151.0476294957716
 21
194.8876551604826
 31
0.0
  0
LINE
  5
1F7
330
21
100
AcDbEntity
  8
1
100
AcDbLine
 10
152.4123455834706
 20
194.8876551604826
 30
0.0
 11
152.4123455834706
 21
194.4876551604825
 31
0.0
  0
LINE
  5
1F8
330
21
100
AcDbEntity
  8
1
100
AcDbLine
 10
150.6851749346715
 20
211.9025839103824
 30
0.0
 11
150.4408354038715
 21
210.5203907974828
 31
0.0
  0
LINE
  5
1F9
330
21
100
AcDbEntity
  8
1
100
AcDbLine
 10
150.72566183667
 20
210.4823701638825
 30
0.0
 11
150.9595726708703
 21
211.8055696603824
 31
0.0
  0
LINE
  5
1FA
330
21
100
AcDbEntity
  8
1
100
AcDbLine
 10
152.7065520496708
 20
196.7843622457822
 30
0.0
 11
151.3501721413704
 21
200.8006162380825
 31
0.0
  0
LINE
  5
1FB
330
21
100
AcDbEntity
  8
1
100
AcDbLine
 10
155.2648842686704
 20
194.9745666862827
 30
0.0
 11
155.1021378139703
 21
209.987655160483
 31
0.0
  0
LINE
  5
1FC
330
21
100
AcDbEntity
  8
1
100
AcDbLine
 10
153.4497824505706
 20
211.987655160483
 30
0.0
 11
153.4497824505706
 21
209.987655160483
 31
0.0
  0
LINE
  5
1FD
330
21
100
AcDbEntity
  8
1
100
AcDbLine
 10
155.5711027940706
 20
212.0876551604824
 30
0.0
 11
155.5711027940706
 21
209.987655160483
 31
0.0
  0
LINE
  5
1FE
330
21
100
AcDbEntity
  8
1
100
AcDbLine
 10
156.6787290902703
 20
194.9745666862827
 30
0.0
 11
156.5158886674708
 21
209.987655160483
 31
0.0
  0
LINE
  5
1FF
330
21
100
AcDbEntity
  8
1
100
AcDbLine
 10
156.6787290902703
 20
194.4876551604825
 30
0.0
 11
156.6787290910706
 21
194.9745666861827
 31
0.0
  0
LINE
  5
200
330
21
100
AcDbEntity
  8
1
100
AcDbLine
 10
147.5130730522706
 20
194.4876551604825
 30
0.0
 11
193.6438511616707
 21
194.4876551604825
 31
0.0
  0
LINE
  5
201
330
21
100
AcDbEntity
  8
1
100
AcDbLine
 10
190.1522370374714
 20
194.8876551604826
 30
0.0
 11
188.4031667935706
 21
194.8876551604826
 31
0.0
  0
LINE
  5
202
330
21
100
AcDbEntity
  8
1
100
AcDbLine
 10
152.7537574203707
 20
194.8876551604826
 30
0.0
 11
151.0046871764716
 21
194.8876551604826
 31
0.0
  0
LINE
  5
203
330
21
100
AcDbEntity
  8
1
100
AcDbLine
 10
193.5579782459699
 20
194.9745666862827
 30
0.0
 11
191.0331566408713
 21
194.9745666862827
 31
0.0
  0
LINE
  5
204
330
21
100
AcDbEntity
  8
1
100
AcDbLine
 10
188.4168615504714
 20
194.9745666862827
 30
0.0
 11
185.8919240703708
 21
194.9745666862827
 31
0.0
  0
LINE
  5
205
330
21
100
AcDbEntity
  8
1
100
AcDbLine
 10
184.478195123671
 20
194.9745666862827
 30
0.0
 11
176.6041139696699
 21
194.9745666862827
 31
0.0
  0
LINE
  5
206
330
21
100
AcDbEntity
  8
1
100
AcDbLine
 10
164.5528102442713
 20
194.9745666862827
 30
0.0
 11
156.6787290902703
 21
194.9745666862827
 31
0.0
  0
LINE
  5
207
330
21
100
AcDbEntity
  8
1
100
AcDbLine
 10
155.2648842686704
 20
194.9745666862827
 30
0.0
 11
152.7400626634717
 21
194.9745666862827
 31
0.0
  0
LINE
  5
208
330
21
100
AcDbEntity
  8
1
100
AcDbLine
 10
150.1237675730699
 20
194.9745666862827
 30
0.0
 11
147.5988300929712
 21
194.9745666862827
 31
0.0
  0
LINE
  5
209
330
21
100
AcDbEntity
  8
1
100
AcDbLine
 10
176.3284621069706
 20
195.0376551604827
 30
0.0
 11
164.8284621069706
 21
195.0376551604827
 31
0.0
  0
LINE
  5
20A
330
21
100
AcDbEntity
  8
1
100
AcDbLine
 10
190.7903033389703
 20
195.4566762865825
 30
0.0
 11
188.425788408771
 21
195.4566762865825
 31
0.0
  0
LINE
  5
20B
330
21
100
AcDbEntity
  8
1
100
AcDbLine
 10
152.7311358051702
 20
195.4566762865825
 30
0.0
 11
150.366620874971
 21
195.4566762865825
 31
0.0
  0
LINE
  5
20C
330
21
100
AcDbEntity
  8
1
100
AcDbLine
 10
164.8284621069706
 20
196.0376551604827
 30
0.0
 11
164.5713665225703
 21
196.0376551604827
 31
0.0
  0
LINE
  5
20D
330
21
100
AcDbEntity
  8
1
100
AcDbLine
 10
176.5768301588705
 20
196.5376551604822
 30
0.0
 11
176.3284621069706
 21
196.5376551604822
 31
0.0
  0
LINE
  5
20E
330
21
100
AcDbEntity
  8
1
100
AcDbLine
 10
164.8284621069706
 20
205.0376551604822
 30
0.0
 11
164.8284621069706
 21
195.0376551604827
 31
0.0
  0
LINE
  5
20F
330
21
100
AcDbEntity
  8
1
100
AcDbLine
 10
164.5443111719705
 20
194.4876551604825
 30
0.0
 11
164.7284621069703
 21
205.0376551604822
 31
0.0
  0
LINE
  5
210
330
21
100
AcDbEntity
  8
1
100
AcDbLine
 10
192.5308519310711
 20
200.6104574574829
 30
0.0
 11
190.0559781969714
 21
200.6104574574829
 31
0.0
  0
LINE
  5
211
330
21
100
AcDbEntity
  8
1
100
AcDbLine
 10
151.1009460169716
 20
200.6104574574829
 30
0.0
 11
148.6260722828702
 21
200.6104574574829
 31
0.0
  0
LINE
  5
212
330
21
100
AcDbEntity
  8
1
100
AcDbLine
 10
192.9043121465711
 20
202.6688444687825
 30
0.0
 11
190.4294384123714
 21
202.6688444687825
 31
0.0
  0
LINE
  5
213
330
21
100
AcDbEntity
  8
1
100
AcDbLine
 10
150.7274858015717
 20
202.6688444687825
 30
0.0
 11
148.2526120673701
 21
202.6688444687825
 31
0.0
  0
LINE
  5
214
330
21
100
AcDbEntity
  8
1
100
AcDbLine
 10
164.7284621069703
 20
205.0376551604822
 30
0.0
 11
176.428462106971
 21
205.0376551604822
 31
0.0
  0
LINE
  5
215
330
21
100
AcDbEntity
  8
1
100
AcDbLine
 10
150.9595726708703
 20
211.8055696603824
 30
0.0
 11
150.6851749346715
 21
211.9025839103824
 31
0.0
  0
LINE
  5
216
330
21
100
AcDbEntity
  8
1
100
AcDbLine
 10
190.4717492792715
 20
211.9025839103824
 30
0.0
 11
190.1973515430709
 21
211.8055696603824
 31
0.0
  0
LINE
  5
217
330
21
100
AcDbEntity
  8
1
100
AcDbLine
 10
145.3284621069706
 20
209.987655160483
 30
0.0
 11
147.95856771117
 21
209.987655160483
 31
0.0
  0
LINE
  5
218
330
21
100
AcDbEntity
  8
1
100
AcDbLine
 10
150.7167403412714
 20
209.987655160483
 30
0.0
 11
190.4401838726717
 21
209.987655160483
 31
0.0
  0
LINE
  5
219
330
21
100
AcDbEntity
  8
1
100
AcDbLine
 10
193.1983565027713
 20
209.987655160483
 30
0.0
 11
195.8284621069706
 21
209.987655160483
 31
0.0
  0
LINE
  5
21A
330
21
100
AcDbEntity
  8
1
100
AcDbLine
 10
193.2089389806715
 20
210.2510547138827
 30
0.0
 11
190.7340652464718
 21
210.2510547138827
 31
0.0
  0
LINE
  5
21B
330
21
100
AcDbEntity
  8
1
100
AcDbLine
 10
150.4228589674713
 20
210.2510547138827
 30
0.0
 11
147.9479852332715
 21
210.2510547138827
 31
0.0
  0
LINE
  5
21C
330
21
100
AcDbEntity
  8
1
100
AcDbLine
 10
193.1909625441713
 20
210.5203907974828
 30
0.0
 11
190.7160888100716
 21
210.5203907974828
 31
0.0
  0
LINE
  5
21D
330
21
100
AcDbEntity
  8
1
100
AcDbLine
 10
150.4408354038715
 20
210.5203907974828
 30
0.0
 11
147.96596166977
 21
210.5203907974828
 31
0.0
  0
LINE
  5
21E
330
21
100
AcDbEntity
  8
1
100
AcDbLine
 10
176.6126130419707
 20
194.4876551604825
 30
0.0
 11
176.428462106971
 21
205.0376551604822
 31
0.0
  0
LINE
  5
21F
330
21
100
AcDbEntity
  8
1
100
AcDbLine
 10
176.3284621069706
 20
205.0376551604822
 30
0.0
 11
176.3284621069706
 21
195.0376551604827
 31
0.0
  0
LINE
  5
220
330
21
100
AcDbEntity
  8
1
100
AcDbLine
 10
195.8284621069706
 20
211.987655160483
 30
0.0
 11
192.9217636457706
 21
211.987655160483
 31
0.0
  0
LINE
  5
221
330
21
100
AcDbEntity
  8
1
100
AcDbLine
 10
190.1944219291709
 20
211.987655160483
 30
0.0
 11
150.9625022847704
 21
211.987655160483
 31
0.0
  0
LINE
  5
222
330
21
100
AcDbEntity
  8
1
100
AcDbLine
 10
148.2351605681706
 20
211.987655160483
 30
0.0
 11
145.3284621069706
 21
211.987655160483
 31
0.0
  0
LINE
  5
223
330
21
100
AcDbEntity
  8
1
100
AcDbLine
 10
130.5784621069706
 20
212.0876551604824
 30
0.0
 11
210.5784621069706
 21
212.0876551604824
 31
0.0
  0
LINE
  5
224
330
21
100
AcDbEntity
  8
1
100
AcDbLine
 10
184.478195123671
 20
194.4876551604825
 30
0.0
 11
184.478195123671
 21
194.9745666862827
 31
0.0
  0
LINE
  5
225
330
21
100
AcDbEntity
  8
1
100
AcDbLine
 10
185.5858214198706
 20
212.0876551604824
 30
0.0
 11
185.5858214198706
 21
209.987655160483
 31
0.0
  0
LINE
  5
226
330
21
100
AcDbEntity
  8
1
100
AcDbLine
 10
184.478195123671
 20
194.9745666862827
 30
0.0
 11
184.6410355464704
 21
209.987655160483
 31
0.0
  0
LINE
  5
227
330
21
100
AcDbEntity
  8
1
100
AcDbLine
 10
130.5784621069706
 20
220.5876551604824
 30
0.0
 11
210.5784621069706
 21
220.5876551604824
 31
0.0
  0
LINE
  5
228
330
21
100
AcDbEntity
  8
1
100
AcDbLine
 10
131.0784621069706
 20
221.0876551604824
 30
0.0
 11
210.0784621069706
 21
221.0876551604824
 31
0.0
  0
LINE
  5
229
330
21
100
AcDbEntity
  8
1
100
AcDbLine
 10
187.7071417633706
 20
211.987655160483
 30
0.0
 11
187.7071417633706
 21
209.987655160483
 31
0.0
  0
LINE
  5
22A
330
21
100
AcDbEntity
  8
1
100
AcDbLine
 10
188.7445786304706
 20
194.8876551604826
 30
0.0
 11
188.7445786304706
 21
194.4876551604825
 31
0.0
  0
LINE
  5
22B
330
21
100
AcDbEntity
  8
1
100
AcDbLine
 10
185.8919240703708
 20
194.9745666862827
 30
0.0
 11
186.0547644931703
 21
209.987655160483
 31
0.0
  0
LINE
  5
22C
330
21
100
AcDbEntity
  8
1
100
AcDbLine
 10
188.4168615504714
 20
194.9745666862827
 30
0.0
 11
188.6948475404715
 21
209.987655160483
 31
0.0
  0
LINE
  5
22D
330
21
100
AcDbEntity
  8
1
100
AcDbLine
 10
190.1092947181714
 20
194.4876551604825
 30
0.0
 11
190.1092947181714
 21
194.8876551604826
 31
0.0
  0
LINE
  5
22E
330
21
100
AcDbEntity
  8
1
100
AcDbLine
 10
191.0566885402714
 20
196.2454454370827
 30
0.0
 11
191.0331566408713
 21
194.9745666862827
 31
0.0
  0
LINE
  5
22F
330
21
100
AcDbEntity
  8
1
100
AcDbLine
 10
190.1462613592703
 20
202.6718771573824
 30
0.0
 11
190.4492388137714
 21
210.2130340803824
 31
0.0
  0
LINE
  5
230
330
21
100
AcDbEntity
  8
1
100
AcDbLine
 10
190.7340652464718
 20
210.2510547138827
 30
0.0
 11
190.4294384123714
 21
202.6688444687825
 31
0.0
  0
LINE
  5
231
330
21
100
AcDbEntity
  8
1
100
AcDbLine
 10
188.4503721642704
 20
196.7843622457822
 30
0.0
 11
189.8067520725708
 21
200.8006162380825
 31
0.0
  0
LINE
  5
232
330
21
100
AcDbEntity
  8
1
100
AcDbLine
 10
190.0559781969714
 20
200.6104574574829
 30
0.0
 11
188.4321900047707
 21
195.8024049570827
 31
0.0
  0
LINE
  5
233
330
21
100
AcDbEntity
  8
1
100
AcDbLine
 10
190.4312623772712
 20
210.4823701638825
 30
0.0
 11
190.1973515430709
 21
211.8055696603824
 31
0.0
  0
LINE
  5
234
330
21
100
AcDbEntity
  8
1
100
AcDbLine
 10
190.4717492792715
 20
211.9025839103824
 30
0.0
 11
190.7160888100716
 21
210.5203907974828
 31
0.0
  0
LINE
  5
235
330
21
100
AcDbEntity
  8
1
100
AcDbLine
 10
194.9497824505706
 20
211.987655160483
 30
0.0
 11
194.9497824505706
 21
209.987655160483
 31
0.0
  0
LINE
  5
236
330
21
100
AcDbEntity
  8
1
100
AcDbLine
 10
193.5579782459699
 20
194.9745666862827
 30
0.0
 11
193.9512037714703
 21
209.987655160483
 31
0.0
  0
LINE
  5
237
330
21
100
AcDbEntity
  8
1
100
AcDbLine
 10
194.1436798241702
 20
194.9745666862827
 30
0.0
 11
194.5368113814711
 21
209.987655160483
 31
0.0
  0
LINE
  5
238
330
21
100
AcDbEntity
  8
1
100
AcDbLine
 10
193.2089389806715
 20
210.2510547138827
 30
0.0
 11
192.9043121465711
 21
202.6688444687825
 31
0.0
  0
LINE
  5
239
330
21
100
AcDbEntity
  8
1
100
AcDbLine
 10
192.5308519310711
 20
200.6104574574829
 30
0.0
 11
190.7903033389703
 21
195.4566762865825
 31
0.0
  0
LINE
  5
23A
330
21
100
AcDbEntity
  8
1
100
AcDbLine
 10
192.9466230134713
 20
211.9025839103824
 30
0.0
 11
193.1909625441713
 21
210.5203907974828
 31
0.0
  0
LINE
  5
23B
330
21
100
AcDbEntity
  8
1
100
AcDbLine
 10
195.8284621069706
 20
211.987655160483
 30
0.0
 11
195.8284621069706
 21
209.987655160483
 31
0.0
  0
LINE
  5
23C
330
21
100
AcDbEntity
  8
1
100
AcDbLine
 10
210.0784621069706
 20
220.5876551604824
 30
0.0
 11
210.0784621069706
 21
212.0876551604824
 31
0.0
  0
LINE
  5
23D
330
21
100
AcDbEntity
  8
1
100
AcDbLine
 10
210.5784621069706
 20
220.5876551604824
 30
0.0
 11
210.0784621069706
 21
221.0876551604824
 31
0.0
  0
LINE
  5
23E
330
21
100
AcDbEntity
  8
1
100
AcDbLine
 10
210.5784621069706
 20
220.5876551604824
 30
0.0
 11
210.5784621069706
 21
212.0876551604824
 31
0.0
  0
LINE
  5
23F
330
21
100
AcDbEntity
  8
1
100
AcDbLine
 10
210.0784621069706
 20
220.5876551604824
 30
0.0
 11
209.8713553257712
 21
221.0876551604824
 31
0.0
  0
LINE
  5
240
330
21
100
AcDbEntity
  8
1
100
AcDbLine
 10
329.3841996069714
 20
168.2122176604826
 30
0.0
 11
328.8841996069714
 21
167.7122176604826
 31
0.0
  0
LINE
  5
241
330
21
100
AcDbEntity
  8
1
100
AcDbLine
 10
328.8841996069714
 20
88.71221766048257
 30
0.0
 11
329.3841996069714
 21
88.21221766048257
 31
0.0
  0
LINE
  5
242
330
21
100
AcDbEntity
  8
1
100
AcDbLine
 10
328.8841996069714
 20
88.71221766048257
 30
0.0
 11
328.8841996069714
 21
167.7122176604826
 31
0.0
  0
LINE
  5
243
330
21
100
AcDbEntity
  8
1
100
AcDbLine
 10
408.3841996069714
 20
88.21221766048257
 30
0.0
 11
329.3841996069714
 21
88.21221766048257
 31
0.0
  0
LINE
  5
244
330
21
100
AcDbEntity
  8
1
100
AcDbLine
 10
332.2341996069699
 20
92.31221766048247
 30
0.0
 11
332.2341996069699
 21
164.1122176604827
 31
0.0
  0
LINE
  5
245
330
21
100
AcDbEntity
  8
1
100
AcDbLine
 10
332.3841996069714
 20
163.7122176604826
 30
0.0
 11
332.3841996069714
 21
92.71221766048257
 31
0.0
  0
LINE
  5
246
330
21
100
AcDbEntity
  8
1
100
AcDbLine
 10
386.1341996069714
 20
90.21221766048257
 30
0.0
 11
351.6341996069714
 21
90.21221766048257
 31
0.0
  0
LINE
  5
247
330
21
100
AcDbEntity
  8
1
100
AcDbLine
 10
385.6341996069714
 20
90.36221766048266
 30
0.0
 11
352.1341996069714
 21
90.36221766048266
 31
0.0
  0
LINE
  5
248
330
21
100
AcDbEntity
  8
1
100
AcDbLine
 10
350.7804537924712
 20
90.71221766048257
 30
0.0
 11
352.034199606971
 21
90.71221766048257
 31
0.0
  0
LINE
  5
249
330
21
100
AcDbEntity
  8
1
100
AcDbLine
 10
385.7341996069699
 20
90.71221766048257
 30
0.0
 11
386.9879454214715
 21
90.71221766048257
 31
0.0
  0
LINE
  5
24A
330
21
100
AcDbEntity
  8
1
100
AcDbLine
 10
404.534199606971
 20
91.31221766048247
 30
0.0
 11
387.1341996069714
 21
91.31221766048247
 31
0.0
  0
LINE
  5
24B
330
21
100
AcDbEntity
  8
1
100
AcDbLine
 10
350.6341996069714
 20
91.31221766048247
 30
0.0
 11
333.2341996069699
 21
91.31221766048247
 31
0.0
  0
LINE
  5
24C
330
21
100
AcDbEntity
  8
1
100
AcDbLine
 10
333.3841996069714
 20
91.71221766048257
 30
0.0
 11
352.034199606971
 21
91.71221766048257
 31
0.0
  0
LINE
  5
24D
330
21
100
AcDbEntity
  8
1
100
AcDbLine
 10
385.7341996069699
 20
91.71221766048257
 30
0.0
 11
404.3841996069714
 21
91.71221766048257
 31
0.0
  0
LINE
  5
24E
330
21
100
AcDbEntity
  8
1
100
AcDbLine
 10
352.1341996069714
 20
92.1624918509824
 30
0.0
 11
385.6341996069714
 21
92.1624918509824
 31
0.0
  0
LINE
  5
24F
330
21
100
AcDbEntity
  8
1
100
AcDbLine
 10
385.6341996069714
 20
92.22882109768261
 30
0.0
 11
382.3841996069714
 21
92.22882109768261
 31
0.0
  0
LINE
  5
250
330
21
100
AcDbEntity
  8
1
100
AcDbLine
 10
378.3841996069714
 20
92.22882109768261
 30
0.0
 11
359.3841996069714
 21
92.22882109768261
 31
0.0
  0
LINE
  5
251
330
21
100
AcDbEntity
  8
1
100
AcDbLine
 10
355.3841996069714
 20
92.22882109768261
 30
0.0
 11
352.1341996069714
 21
92.22882109768261
 31
0.0
  0
LINE
  5
252
330
21
100
AcDbEntity
  8
1
100
AcDbLine
 10
352.034199606971
 20
92.26221766048229
 30
0.0
 11
355.3841996069714
 21
92.26221766048229
 31
0.0
  0
LINE
  5
253
330
21
100
AcDbEntity
  8
1
100
AcDbLine
 10
359.3841996069714
 20
92.26221766048229
 30
0.0
 11
378.3841996069714
 21
92.26221766048229
 31
0.0
  0
LINE
  5
254
330
21
100
AcDbEntity
  8
1
100
AcDbLine
 10
382.3841996069714
 20
92.26221766048229
 30
0.0
 11
385.7341996069699
 21
92.26221766048229
 31
0.0
  0
LINE
  5
255
330
21
100
AcDbEntity
  8
1
100
AcDbLine
 10
333.1841996069707
 20
92.71221766048257
 30
0.0
 11
333.1841996069707
 21
163.7122176604826
 31
0.0
  0
LINE
  5
256
330
21
100
AcDbEntity
  8
1
100
AcDbLine
 10
333.284199606971
 20
93.61221766048266
 30
0.0
 11
333.284199606971
 21
162.8122176604825
 31
0.0
  0
LINE
  5
257
330
21
100
AcDbEntity
  8
1
100
AcDbLine
 10
334.3741996069712
 20
91.31221766048247
 30
0.0
 11
334.3741996069712
 21
91.71221766048257
 31
0.0
  0
LINE
  5
258
330
21
100
AcDbEntity
  8
1
100
AcDbLine
 10
334.3741996069712
 20
164.7122176604826
 30
0.0
 11
334.3741996069712
 21
165.1122176604827
 31
0.0
  0
LINE
  5
259
330
21
100
AcDbEntity
  8
1
100
AcDbLine
 10
334.3841996069714
 20
165.1122176604827
 30
0.0
 11
334.3841996069714
 21
164.7122176604826
 31
0.0
  0
LINE
  5
25A
330
21
100
AcDbEntity
  8
1
100
AcDbLine
 10
334.3841996069714
 20
91.31221766048247
 30
0.0
 11
334.3841996069714
 21
91.71221766048257
 31
0.0
  0
LINE
  5
25B
330
21
100
AcDbEntity
  8
1
100
AcDbLine
 10
404.3841996069714
 20
92.51221766048229
 30
0.0
 11
385.7341996069699
 21
92.51221766048229
 31
0.0
  0
LINE
  5
25C
330
21
100
AcDbEntity
  8
1
100
AcDbLine
 10
352.034199606971
 20
92.51221766048229
 30
0.0
 11
333.3841996069714
 21
92.51221766048229
 31
0.0
  0
LINE
  5
25D
330
21
100
AcDbEntity
  8
1
100
AcDbLine
 10
359.3841996069714
 20
92.57086883508236
 30
0.0
 11
355.3841996069714
 21
92.57086883508236
 31
0.0
  0
LINE
  5
25E
330
21
100
AcDbEntity
  8
1
100
AcDbLine
 10
378.3841996069714
 20
92.57086883508236
 30
0.0
 11
382.3841996069714
 21
92.57086883508236
 31
0.0
  0
LINE
  5
25F
330
21
100
AcDbEntity
  8
1
100
AcDbLine
 10
403.4841996069699
 20
92.61221766048266
 30
0.0
 11
334.284199606971
 21
92.61221766048266
 31
0.0
  0
LINE
  5
260
330
21
100
AcDbEntity
  8
1
100
AcDbLine
 10
348.7275717073717
 20
150.8437192942824
 30
0.0
 11
346.2526979731701
 21
148.3688455600823
 31
0.0
  0
LINE
  5
261
330
21
100
AcDbEntity
  8
1
100
AcDbLine
 10
348.7285964674702
 20
150.8426945341826
 30
0.0
 11
346.2537227332705
 21
148.3678207999824
 31
0.0
  0
LINE
  5
262
330
21
100
AcDbEntity
  8
1
100
AcDbLine
 10
351.4019665599699
 20
152.9370913946823
 30
0.0
 11
349.0180830834706
 21
150.5532079181826
 31
0.0
  0
LINE
  5
263
330
21
100
AcDbEntity
  8
1
100
AcDbLine
 10
346.5432093492709
 20
148.0783341839824
 30
0.0
 11
344.1593258727717
 21
145.6944507074827
 31
0.0
  0
LINE
  5
264
330
21
100
AcDbEntity
  8
1
100
AcDbLine
 10
349.0332233015706
 20
150.5380677000826
 30
0.0
 11
346.5583495673709
 21
148.0631939658824
 31
0.0
  0
LINE
  5
265
330
21
100
AcDbEntity
  8
1
100
AcDbLine
 10
344.5128792633714
 20
145.3408973168825
 30
0.0
 11
346.8967627398706
 21
147.7247807933827
 31
0.0
  0
LINE
  5
266
330
21
100
AcDbEntity
  8
1
100
AcDbLine
 10
349.3716364740703
 20
150.1996545275824
 30
0.0
 11
351.7555199505714
 21
152.5835380040826
 31
0.0
  0
LINE
  5
267
330
21
100
AcDbEntity
  8
1
100
AcDbLine
 10
349.4066835169706
 20
150.1646074845826
 30
0.0
 11
346.9318097828709
 21
147.6897337504824
 31
0.0
  0
LINE
  5
268
330
21
100
AcDbEntity
  8
1
100
AcDbLine
 10
352.4626267316708
 20
151.8764312228827
 30
0.0
 11
350.0787432552715
 21
149.4925477463826
 31
0.0
  0
LINE
  5
269
330
21
100
AcDbEntity
  8
1
100
AcDbLine
 10
347.60386952107
 20
147.0176740121824
 30
0.0
 11
345.2199860445708
 21
144.6337905357823
 31
0.0
  0
LINE
  5
26A
330
21
100
AcDbEntity
  8
1
100
AcDbLine
 10
346.2526979731701
 20
108.0555897608824
 30
0.0
 11
348.7275717073717
 21
105.5807160266827
 31
0.0
  0
LINE
  5
26B
330
21
100
AcDbEntity
  8
1
100
AcDbLine
 10
346.2537227332705
 20
108.0566145209823
 30
0.0
 11
348.7285964674702
 21
105.5817407867826
 31
0.0
  0
LINE
  5
26C
330
21
100
AcDbEntity
  8
1
100
AcDbLine
 10
344.1593258727717
 20
110.7299846134824
 30
0.0
 11
346.5432093492709
 21
108.3461011369827
 31
0.0
  0
LINE
  5
26D
330
21
100
AcDbEntity
  8
1
100
AcDbLine
 10
349.0180830834706
 20
105.8712274027826
 30
0.0
 11
351.4019665599699
 21
103.4873439262824
 31
0.0
  0
LINE
  5
26E
330
21
100
AcDbEntity
  8
1
100
AcDbLine
 10
346.5583495673709
 20
108.3612413550827
 30
0.0
 11
349.0332233015706
 21
105.8863676208825
 31
0.0
  0
LINE
  5
26F
330
21
100
AcDbEntity
  8
1
100
AcDbLine
 10
351.7555199505714
 20
103.8408973168825
 30
0.0
 11
349.3716364740703
 21
106.2247807933827
 31
0.0
  0
LINE
  5
270
330
21
100
AcDbEntity
  8
1
100
AcDbLine
 10
346.8967627398706
 20
108.6996545275824
 30
0.0
 11
344.5128792633714
 21
111.0835380040826
 31
0.0
  0
LINE
  5
271
330
21
100
AcDbEntity
  8
1
100
AcDbLine
 10
346.9318097828709
 20
108.7347015704827
 30
0.0
 11
349.4066835169706
 21
106.2598278363826
 31
0.0
  0
LINE
  5
272
330
21
100
AcDbEntity
  8
1
100
AcDbLine
 10
345.2199860445708
 20
111.7906447851824
 30
0.0
 11
347.60386952107
 21
109.4067613087827
 31
0.0
  0
LINE
  5
273
330
21
100
AcDbEntity
  8
1
100
AcDbLine
 10
350.0787432552715
 20
106.9318875745826
 30
0.0
 11
352.4626267316708
 21
104.5480040980824
 31
0.0
  0
LINE
  5
274
330
21
100
AcDbEntity
  8
1
100
AcDbLine
 10
343.1341996069714
 20
143.2195769733826
 30
0.0
 11
343.1341996069714
 21
113.2048583475826
 31
0.0
  0
LINE
  5
275
330
21
100
AcDbEntity
  8
1
100
AcDbLine
 10
343.6341996069714
 20
113.2048583475826
 30
0.0
 11
343.6341996069714
 21
143.2195769733826
 31
0.0
  0
LINE
  5
276
330
21
100
AcDbEntity
  8
1
100
AcDbLine
 10
344.6341996069714
 20
143.2195769733826
 30
0.0
 11
344.6341996069714
 21
113.2048583475826
 31
0.0
  0
LINE
  5
277
330
21
100
AcDbEntity
  8
1
100
AcDbLine
 10
344.8341996069703
 20
142.3127540734827
 30
0.0
 11
344.8341996069703
 21
114.1116812474825
 31
0.0
  0
LINE
  5
278
330
21
100
AcDbEntity
  8
1
100
AcDbLine
 10
353.3699342472701
 20
151.6766319572826
 30
0.0
 11
350.7030073239712
 21
149.0097050338827
 31
0.0
  0
LINE
  5
279
330
21
100
AcDbEntity
  8
1
100
AcDbLine
 10
348.0867122335712
 20
146.3934099434828
 30
0.0
 11
345.4197853101705
 21
143.7264830201825
 31
0.0
  0
LINE
  5
27A
330
21
100
AcDbEntity
  8
1
100
AcDbLine
 10
353.5707376435712
 20
151.1918496744825
 30
0.0
 11
351.0458001634706
 21
148.6669121943823
 31
0.0
  0
LINE
  5
27B
330
21
100
AcDbEntity
  8
1
100
AcDbLine
 10
348.4295050730707
 20
146.0506171039824
 30
0.0
 11
345.9045675929701
 21
143.5256796238828
 31
0.0
  0
LINE
  5
27C
330
21
100
AcDbEntity
  8
1
100
AcDbLine
 10
348.4402656241709
 20
146.0398565528826
 30
0.0
 11
348.5109763022701
 21
146.1105672310823
 31
0.0
  0
LINE
  5
27D
330
21
100
AcDbEntity
  8
1
100
AcDbLine
 10
350.9858500363716
 20
148.5854409651824
 30
0.0
 11
351.0565607145709
 21
148.6561516432826
 31
0.0
  0
LINE
  5
27E
330
21
100
AcDbEntity
  8
1
100
AcDbLine
 10
351.1472321090714
 20
148.4240588924827
 30
0.0
 11
348.6723583749717
 21
145.9491851583825
 31
0.0
  0
LINE
  5
27F
330
21
100
AcDbEntity
  8
1
100
AcDbLine
 10
351.3791310967717
 20
148.3335812610826
 30
0.0
 11
351.3084204185707
 21
148.2628705829825
 31
0.0
  0
LINE
  5
280
330
21
100
AcDbEntity
  8
1
100
AcDbLine
 10
348.833546684471
 20
145.7879968488824
 30
0.0
 11
348.76283600637
 21
145.7172861706827
 31
0.0
  0
LINE
  5
281
330
21
100
AcDbEntity
  8
1
100
AcDbLine
 10
353.9241698802707
 20
150.8384174377825
 30
0.0
 11
351.3992324001701
 21
148.3134799576824
 31
0.0
  0
LINE
  5
282
330
21
100
AcDbEntity
  8
1
100
AcDbLine
 10
348.7829373097702
 20
145.6971848672824
 30
0.0
 11
346.2579998296715
 21
143.1722473871823
 31
0.0
  0
LINE
  5
283
330
21
100
AcDbEntity
  8
1
100
AcDbLine
 10
351.7852984105702
 20
147.7859925909825
 30
0.0
 11
349.3104246764706
 21
145.3111188568823
 31
0.0
  0
LINE
  5
284
330
21
100
AcDbEntity
  8
1
100
AcDbLine
 10
351.9446226753716
 20
147.7680896823827
 30
0.0
 11
351.8739119972706
 21
147.6973790042825
 31
0.0
  0
LINE
  5
285
330
21
100
AcDbEntity
  8
1
100
AcDbLine
 10
349.399038263171
 20
145.2225052701824
 30
0.0
 11
349.3283275850699
 21
145.1517945920823
 31
0.0
  0
LINE
  5
286
330
21
100
AcDbEntity
  8
1
100
AcDbLine
 10
352.8394034269713
 20
148.6127916125824
 30
0.0
 11
351.9696620861705
 21
147.7430502716825
 31
0.0
  0
LINE
  5
287
330
21
100
AcDbEntity
  8
1
100
AcDbLine
 10
349.3533669957706
 20
145.1267551812825
 30
0.0
 11
348.4836256548715
 21
144.2570138404826
 31
0.0
  0
LINE
  5
288
330
21
100
AcDbEntity
  8
1
100
AcDbLine
 10
352.8394034269713
 20
148.4996545275826
 30
0.0
 11
351.9555199505703
 21
147.6157710510824
 31
0.0
  0
LINE
  5
289
330
21
100
AcDbEntity
  8
1
100
AcDbLine
 10
349.4806462163706
 20
145.1408973168827
 30
0.0
 11
348.5967627398713
 21
144.2570138404826
 31
0.0
  0
LINE
  5
28A
330
21
100
AcDbEntity
  8
1
100
AcDbLine
 10
353.8768402940714
 20
102.4622176604826
 30
0.0
 11
383.8915589198714
 21
102.4622176604826
 31
0.0
  0
LINE
  5
28B
330
21
100
AcDbEntity
  8
1
100
AcDbLine
 10
383.8915589198714
 20
102.9622176604826
 30
0.0
 11
353.8768402940714
 21
102.9622176604826
 31
0.0
  0
LINE
  5
28C
330
21
100
AcDbEntity
  8
1
100
AcDbLine
 10
353.8768402940714
 20
103.9622176604826
 30
0.0
 11
383.8915589198714
 21
103.9622176604826
 31
0.0
  0
LINE
  5
28D
330
21
100
AcDbEntity
  8
1
100
AcDbLine
 10
354.7836631939699
 20
104.1622176604824
 30
0.0
 11
382.984736019971
 21
104.1622176604824
 31
0.0
  0
LINE
  5
28E
330
21
100
AcDbEntity
  8
1
100
AcDbLine
 10
374.7341996069699
 20
104.3834886977825
 30
0.0
 11
363.034199606971
 21
104.3834886977825
 31
0.0
  0
LINE
  5
28F
330
21
100
AcDbEntity
  8
1
100
AcDbLine
 10
345.4197853101705
 20
112.6979523007826
 30
0.0
 11
348.0867122335712
 21
110.0310253774824
 31
0.0
  0
LINE
  5
290
330
21
100
AcDbEntity
  8
1
100
AcDbLine
 10
350.7030073239712
 20
107.4147302870824
 30
0.0
 11
353.3699342472701
 21
104.7478033636826
 31
0.0
  0
LINE
  5
291
330
21
100
AcDbEntity
  8
1
100
AcDbLine
 10
345.9046834679702
 20
112.8986398221823
 30
0.0
 11
348.4295050730707
 21
110.3738182169827
 31
0.0
  0
LINE
  5
292
330
21
100
AcDbEntity
  8
1
100
AcDbLine
 10
351.0458001634706
 20
107.7575231265823
 30
0.0
 11
353.5707376435712
 21
105.2325856464827
 31
0.0
  0
LINE
  5
293
330
21
100
AcDbEntity
  8
1
100
AcDbLine
 10
351.0565607145709
 20
107.7682836776826
 30
0.0
 11
350.9858500363716
 21
107.8389943557827
 31
0.0
  0
LINE
  5
294
330
21
100
AcDbEntity
  8
1
100
AcDbLine
 10
348.5109763022701
 20
110.3138680898824
 30
0.0
 11
348.4402656241709
 21
110.3845787680825
 31
0.0
  0
LINE
  5
295
330
21
100
AcDbEntity
  8
1
100
AcDbLine
 10
348.6723583749717
 20
110.4752501625826
 30
0.0
 11
351.1472321090714
 21
108.0003764284825
 31
0.0
  0
LINE
  5
296
330
21
100
AcDbEntity
  8
1
100
AcDbLine
 10
348.76283600637
 20
110.7071491502825
 30
0.0
 11
348.833546684471
 21
110.6364384720823
 31
0.0
  0
LINE
  5
297
330
21
100
AcDbEntity
  8
1
100
AcDbLine
 10
351.3084204185707
 20
108.1615647379826
 30
0.0
 11
351.3791310967717
 21
108.0908540598825
 31
0.0
  0
LINE
  5
298
330
21
100
AcDbEntity
  8
1
100
AcDbLine
 10
346.2579998296715
 20
113.2521879337824
 30
0.0
 11
348.7829373097702
 21
110.7272504536827
 31
0.0
  0
LINE
  5
299
330
21
100
AcDbEntity
  8
1
100
AcDbLine
 10
351.3992324001701
 20
108.1109553632823
 30
0.0
 11
353.9241698802707
 21
105.5860178831826
 31
0.0
  0
LINE
  5
29A
330
21
100
AcDbEntity
  8
1
100
AcDbLine
 10
349.3104246764706
 20
111.1133164640823
 30
0.0
 11
351.7852984105702
 21
108.6384427299827
 31
0.0
  0
LINE
  5
29B
330
21
100
AcDbEntity
  8
1
100
AcDbLine
 10
349.3283275850699
 20
111.2726407288824
 30
0.0
 11
349.399038263171
 21
111.2019300507827
 31
0.0
  0
LINE
  5
29C
330
21
100
AcDbEntity
  8
1
100
AcDbLine
 10
351.8739119972706
 20
108.7270563166826
 30
0.0
 11
351.9446226753716
 21
108.6563456385825
 31
0.0
  0
LINE
  5
29D
330
21
100
AcDbEntity
  8
1
100
AcDbLine
 10
348.4836256548715
 20
112.1674214804825
 30
0.0
 11
349.3533669957706
 21
111.2976801396826
 31
0.0
  0
LINE
  5
29E
330
21
100
AcDbEntity
  8
1
100
AcDbLine
 10
351.9696620861705
 20
108.6813850492827
 30
0.0
 11
352.8394034269713
 21
107.8116437083827
 31
0.0
  0
LINE
  5
29F
330
21
100
AcDbEntity
  8
1
100
AcDbLine
 10
348.5967627398713
 20
112.1674214804825
 30
0.0
 11
349.4806462163706
 21
111.2835380040824
 31
0.0
  0
LINE
  5
2A0
330
21
100
AcDbEntity
  8
1
100
AcDbLine
 10
351.9555199505703
 20
108.8086642698827
 30
0.0
 11
352.8394034269713
 21
107.9247807933825
 31
0.0
  0
LINE
  5
2A1
330
21
100
AcDbEntity
  8
1
100
AcDbLine
 10
345.3189818897699
 20
142.1119506771824
 30
0.0
 11
345.3189818897699
 21
114.3124846437827
 31
0.0
  0
LINE
  5
2A2
330
21
100
AcDbEntity
  8
1
100
AcDbLine
 10
345.8188105522713
 20
142.1119506771824
 30
0.0
 11
345.8188105522713
 21
114.3124846437827
 31
0.0
  0
LINE
  5
2A3
330
21
100
AcDbEntity
  8
1
100
AcDbLine
 10
352.1322966458702
 20
140.7214799344824
 30
0.0
 11
356.3749373329701
 21
144.9641206215824
 31
0.0
  0
LINE
  5
2A4
330
21
100
AcDbEntity
  8
1
100
AcDbLine
 10
356.48807441797
 20
144.9641206215824
 30
0.0
 11
352.1322966458702
 21
140.6083428494826
 31
0.0
  0
LINE
  5
2A5
330
21
100
AcDbEntity
  8
1
100
AcDbLine
 10
354.984466590271
 20
104.6469999432825
 30
0.0
 11
362.8585477442703
 21
104.6469999432825
 31
0.0
  0
LINE
  5
2A6
330
21
100
AcDbEntity
  8
1
100
AcDbLine
 10
374.9098514696707
 20
104.6469999432825
 30
0.0
 11
382.7839326236699
 21
104.6469999432825
 31
0.0
  0
LINE
  5
2A7
330
21
100
AcDbEntity
  8
1
100
AcDbLine
 10
354.984466590271
 20
105.1468286057825
 30
0.0
 11
362.8500486719713
 21
105.1468286057825
 31
0.0
  0
LINE
  5
2A8
330
21
100
AcDbEntity
  8
1
100
AcDbLine
 10
374.9183505419714
 20
105.1468286057825
 30
0.0
 11
382.7839326236699
 21
105.1468286057825
 31
0.0
  0
LINE
  5
2A9
330
21
100
AcDbEntity
  8
1
100
AcDbLine
 10
356.3749373329701
 20
111.4603146993827
 30
0.0
 11
352.1322966458702
 21
115.7029553864827
 31
0.0
  0
LINE
  5
2AA
330
21
100
AcDbEntity
  8
1
100
AcDbLine
 10
352.1322966458702
 20
115.8160924714825
 30
0.0
 11
356.48807441797
 21
111.4603146993827
 31
0.0
  0
LINE
  5
2AB
330
21
100
AcDbEntity
  8
1
100
AcDbLine
 10
350.6341996069714
 20
91.21221766048257
 30
0.0
 11
350.6341996069714
 21
91.31221766048247
 31
0.0
  0
LINE
  5
2AC
330
21
100
AcDbEntity
  8
1
100
AcDbLine
 10
350.6341996069714
 20
165.1122176604827
 30
0.0
 11
350.6341996069714
 21
165.2122176604826
 31
0.0
  0
LINE
  5
2AD
330
21
100
AcDbEntity
  8
1
100
AcDbLine
 10
352.034199606971
 20
90.71221766048257
 30
0.0
 11
352.034199606971
 21
92.51221766048229
 31
0.0
  0
LINE
  5
2AE
330
21
100
AcDbEntity
  8
1
100
AcDbLine
 10
352.034199606971
 20
163.9122176604824
 30
0.0
 11
352.034199606971
 21
165.7122176604826
 31
0.0
  0
LINE
  5
2AF
330
21
100
AcDbEntity
  8
1
100
AcDbLine
 10
352.1341996069714
 20
90.36221766048266
 30
0.0
 11
352.1341996069714
 21
92.26221766048229
 31
0.0
  0
LINE
  5
2B0
330
21
100
AcDbEntity
  8
1
100
AcDbLine
 10
352.1341996069714
 20
164.1622176604824
 30
0.0
 11
352.1341996069714
 21
166.0622176604825
 31
0.0
  0
LINE
  5
2B1
330
21
100
AcDbEntity
  8
1
100
AcDbLine
 10
362.8585477442703
 20
104.6469999432825
 30
0.0
 11
363.034199606971
 21
104.3834886977825
 31
0.0
  0
LINE
  5
2B2
330
21
100
AcDbEntity
  8
1
100
AcDbLine
 10
353.8768402940714
 20
153.9622176604826
 30
0.0
 11
353.8768402940714
 21
153.4622176604826
 31
0.0
  0
LINE
  5
2B3
330
21
100
AcDbEntity
  8
1
100
AcDbLine
 10
353.8768402940714
 20
102.4622176604826
 30
0.0
 11
353.8768402940714
 21
102.9622176604826
 31
0.0
  0
LINE
  5
2B4
330
21
100
AcDbEntity
  8
1
100
AcDbLine
 10
354.984466590271
 20
105.1468286057825
 30
0.0
 11
354.984466590271
 21
104.6469999432825
 31
0.0
  0
LINE
  5
2B5
330
21
100
AcDbEntity
  8
1
100
AcDbLine
 10
354.984466590271
 20
151.2776067151826
 30
0.0
 11
354.9844665910714
 21
151.7774353776827
 31
0.0
  0
LINE
  5
2B6
330
21
100
AcDbEntity
  8
1
100
AcDbLine
 10
355.1341996069714
 20
164.1622176604824
 30
0.0
 11
355.1341996069714
 21
163.8122176604825
 31
0.0
  0
LINE
  5
2B7
330
21
100
AcDbEntity
  8
1
100
AcDbLine
 10
355.1341996069714
 20
92.26221766048229
 30
0.0
 11
355.1341996069714
 21
92.61221766048266
 31
0.0
  0
LINE
  5
2B8
330
21
100
AcDbEntity
  8
1
100
AcDbLine
 10
355.3841996069714
 20
92.1624918509824
 30
0.0
 11
355.3841996069714
 21
92.61221766048266
 31
0.0
  0
LINE
  5
2B9
330
21
100
AcDbEntity
  8
1
100
AcDbLine
 10
355.3841996069714
 20
163.8122176604825
 30
0.0
 11
355.3841996069714
 21
164.2619434699827
 31
0.0
  0
LINE
  5
2BA
330
21
100
AcDbEntity
  8
1
100
AcDbLine
 10
354.5748135786707
 20
129.8329521499827
 30
0.0
 11
354.681054273271
 21
130.4354730698824
 31
0.0
  0
LINE
  5
2BB
330
21
100
AcDbEntity
  8
1
100
AcDbLine
 10
355.1935856352702
 20
126.5914831709824
 30
0.0
 11
355.0873449406718
 21
125.9889622510827
 31
0.0
  0
LINE
  5
2BC
330
21
100
AcDbEntity
  8
1
100
AcDbLine
 10
374.9183505419714
 20
113.1606638735825
 30
0.0
 11
375.8262680621701
 21
113.1606638735825
 31
0.0
  0
LINE
  5
2BD
330
21
100
AcDbEntity
  8
1
100
AcDbLine
 10
394.6341996069714
 20
113.2048583475826
 30
0.0
 11
394.1341996069714
 21
113.2048583475826
 31
0.0
  0
LINE
  5
2BE
330
21
100
AcDbEntity
  8
1
100
AcDbLine
 10
343.1341996069714
 20
113.2048583475826
 30
0.0
 11
343.6341996069714
 21
113.2048583475826
 31
0.0
  0
LINE
  5
2BF
330
21
100
AcDbEntity
  8
1
100
AcDbLine
 10
374.7341996069699
 20
113.2527323287827
 30
0.0
 11
375.7341996069699
 21
113.2527323287827
 31
0.0
  0
LINE
  5
2C0
330
21
100
AcDbEntity
  8
1
100
AcDbLine
 10
345.8188105522713
 20
114.3124846437827
 30
0.0
 11
345.3189818897699
 21
114.3124846445826
 31
0.0
  0
LINE
  5
2C1
330
21
100
AcDbEntity
  8
1
100
AcDbLine
 10
391.9495886616714
 20
114.3124846437827
 30
0.0
 11
392.449417324171
 21
114.3124846437827
 31
0.0
  0
LINE
  5
2C2
330
21
100
AcDbEntity
  8
1
100
AcDbLine
 10
355.6634049910717
 20
118.0090897522823
 30
0.0
 11
356.27714820867
 21
117.9008702637825
 31
0.0
  0
LINE
  5
2C3
330
21
100
AcDbEntity
  8
1
100
AcDbLine
 10
363.034199606971
 20
114.1354227412826
 30
0.0
 11
362.8858315550715
 21
114.3067368868824
 31
0.0
  0
LINE
  5
2C4
330
21
100
AcDbEntity
  8
1
100
AcDbLine
 10
354.681054273271
 20
125.9889622510827
 30
0.0
 11
354.5748135786707
 21
126.5914831709824
 31
0.0
  0
LINE
  5
2C5
330
21
100
AcDbEntity
  8
1
100
AcDbLine
 10
357.0728522102709
 20
117.1051662621826
 30
0.0
 11
357.1841996069707
 21
116.4736837953824
 31
0.0
  0
LINE
  5
2C6
330
21
100
AcDbEntity
  8
1
100
AcDbLine
 10
355.0873449406718
 20
130.4354730698824
 30
0.0
 11
355.1935856352702
 21
129.8329521499827
 31
0.0
  0
LINE
  5
2C7
330
21
100
AcDbEntity
  8
1
100
AcDbLine
 10
357.6955470036701
 20
119.3192690587825
 30
0.0
 11
357.5841996069703
 21
119.9507515255823
 31
0.0
  0
LINE
  5
2C8
330
21
100
AcDbEntity
  8
1
100
AcDbLine
 10
357.3841996069714
 20
163.8121860699825
 30
0.0
 11
357.3841996069714
 21
164.2619434699827
 31
0.0
  0
LINE
  5
2C9
330
21
100
AcDbEntity
  8
1
100
AcDbLine
 10
359.3841996069714
 20
92.1624918509824
 30
0.0
 11
359.3841996069714
 21
92.61221766048266
 31
0.0
  0
LINE
  5
2CA
330
21
100
AcDbEntity
  8
1
100
AcDbLine
 10
359.3841996069714
 20
163.8122176604825
 30
0.0
 11
359.3841996069714
 21
164.2619434699827
 31
0.0
  0
LINE
  5
2CB
330
21
100
AcDbEntity
  8
1
100
AcDbLine
 10
359.6341996069714
 20
164.1622176604824
 30
0.0
 11
359.6341996069714
 21
163.8122176604825
 31
0.0
  0
LINE
  5
2CC
330
21
100
AcDbEntity
  8
1
100
AcDbLine
 10
359.6341996069714
 20
92.26221766048229
 30
0.0
 11
359.6341996069714
 21
92.61221766048266
 31
0.0
  0
LINE
  5
2CD
330
21
100
AcDbEntity
  8
1
100
AcDbLine
 10
357.1841996069707
 20
119.9507515255823
 30
0.0
 11
357.0728522102709
 21
119.3192690587825
 31
0.0
  0
LINE
  5
2CE
330
21
100
AcDbEntity
  8
1
100
AcDbLine
 10
357.5841996069703
 20
116.4736837953824
 30
0.0
 11
357.6955470036701
 21
117.1051662621826
 31
0.0
  0
LINE
  5
2CF
330
21
100
AcDbEntity
  8
1
100
AcDbLine
 10
358.4912510052709
 20
117.9008702637825
 30
0.0
 11
359.104994222871
 21
118.0090897522823
 31
0.0
  0
LINE
  5
2D0
330
21
100
AcDbEntity
  8
1
100
AcDbLine
 10
375.7341996069699
 20
117.1717029921824
 30
0.0
 11
374.7341996069699
 21
117.1717029921824
 31
0.0
  0
LINE
  5
2D1
330
21
100
AcDbEntity
  8
1
100
AcDbLine
 10
375.8262680621701
 20
117.2637714473826
 30
0.0
 11
374.9183505419714
 21
117.2637714473826
 31
0.0
  0
LINE
  5
2D2
330
21
100
AcDbEntity
  8
1
100
AcDbLine
 10
356.27714820867
 20
117.8122176604825
 30
0.0
 11
355.6917109245715
 21
117.8122176604825
 31
0.0
  0
LINE
  5
2D3
330
21
100
AcDbEntity
  8
1
100
AcDbLine
 10
363.034199606971
 20
118.6122176604827
 30
0.0
 11
374.7341996069699
 21
118.6122176604827
 31
0.0
  0
LINE
  5
2D4
330
21
100
AcDbEntity
  8
1
100
AcDbLine
 10
362.8500486719713
 20
118.7963685954824
 30
0.0
 11
374.9183505419714
 21
118.7963685954824
 31
0.0
  0
LINE
  5
2D5
330
21
100
AcDbEntity
  8
1
100
AcDbLine
 10
356.6849592787712
 20
119.8122176604825
 30
0.0
 11
357.1597723487703
 21
119.8122176604825
 31
0.0
  0
LINE
  5
2D6
330
21
100
AcDbEntity
  8
1
100
AcDbLine
 10
359.104994222871
 20
118.4153455686824
 30
0.0
 11
358.4912510052709
 21
118.5235650571826
 31
0.0
  0
LINE
  5
2D7
330
21
100
AcDbEntity
  8
1
100
AcDbLine
 10
374.9183505419714
 20
113.1606638735825
 30
0.0
 11
374.7341996069699
 21
113.2527323287827
 31
0.0
  0
LINE
  5
2D8
330
21
100
AcDbEntity
  8
1
100
AcDbLine
 10
363.034199606971
 20
118.6122176604827
 30
0.0
 11
362.8500486719713
 21
118.7963685954824
 31
0.0
  0
LINE
  5
2D9
330
21
100
AcDbEntity
  8
1
100
AcDbLine
 10
362.8500486719713
 20
105.1468286057825
 30
0.0
 11
362.8500486719713
 21
118.7963685954824
 31
0.0
  0
LINE
  5
2DA
330
21
100
AcDbEntity
  8
1
100
AcDbLine
 10
362.8858315550715
 20
116.1176984340827
 30
0.0
 11
362.8858315550715
 21
114.3067368868824
 31
0.0
  0
LINE
  5
2DB
330
21
100
AcDbEntity
  8
1
100
AcDbLine
 10
363.034199606971
 20
104.3834886977825
 30
0.0
 11
363.034199606971
 21
114.1354227412826
 31
0.0
  0
LINE
  5
2DC
330
21
100
AcDbEntity
  8
1
100
AcDbLine
 10
363.034199606971
 20
116.2890125796825
 30
0.0
 11
363.034199606971
 21
118.6122176604827
 31
0.0
  0
LINE
  5
2DD
330
21
100
AcDbEntity
  8
1
100
AcDbLine
 10
353.5707376435712
 20
105.2325856464827
 30
0.0
 11
353.3699342472701
 21
104.7478033636826
 31
0.0
  0
LINE
  5
2DE
330
21
100
AcDbEntity
  8
1
100
AcDbLine
 10
354.984466590271
 20
104.6469999432825
 30
0.0
 11
354.7836631939699
 21
104.1622176604824
 31
0.0
  0
LINE
  5
2DF
330
21
100
AcDbEntity
  8
1
100
AcDbLine
 10
346.2579998296715
 20
113.2521879337824
 30
0.0
 11
345.9045675929701
 21
112.8987556970824
 31
0.0
  0
LINE
  5
2E0
330
21
100
AcDbEntity
  8
1
100
AcDbLine
 10
383.8442293336702
 20
150.8384174377825
 30
0.0
 11
384.19766157087
 21
151.1918496739827
 31
0.0
  0
LINE
  5
2E1
330
21
100
AcDbEntity
  8
1
100
AcDbLine
 10
386.3664326539711
 20
152.9370913946823
 30
0.0
 11
386.0128792633714
 21
152.5835380040826
 31
0.0
  0
LINE
  5
2E2
330
21
100
AcDbEntity
  8
1
100
AcDbLine
 10
344.1593258727717
 20
110.7299846134824
 30
0.0
 11
344.5128792633714
 21
111.0835380040826
 31
0.0
  0
LINE
  5
2E3
330
21
100
AcDbEntity
  8
1
100
AcDbLine
 10
383.5147822245708
 20
148.6127916125824
 30
0.0
 11
381.280324795971
 21
146.3783341839826
 31
0.0
  0
LINE
  5
2E4
330
21
100
AcDbEntity
  8
1
100
AcDbLine
 10
348.4836256548715
 20
113.5816350428827
 30
0.0
 11
350.7180830834714
 21
115.8160924714825
 31
0.0
  0
LINE
  5
2E5
330
21
100
AcDbEntity
  8
1
100
AcDbLine
 10
383.5147822245708
 20
148.4996545275826
 30
0.0
 11
381.3934618809708
 21
146.3783341839826
 31
0.0
  0
LINE
  5
2E6
330
21
100
AcDbEntity
  8
1
100
AcDbLine
 10
350.7180830834714
 20
115.7029553864827
 30
0.0
 11
348.5967627398713
 21
113.5816350428827
 31
0.0
  0
LINE
  5
2E7
330
21
100
AcDbEntity
  8
1
100
AcDbLine
 10
392.449417324171
 20
142.1119506771824
 30
0.0
 11
392.9341996069707
 21
142.3127540734827
 31
0.0
  0
LINE
  5
2E8
330
21
100
AcDbEntity
  8
1
100
AcDbLine
 10
391.8637157459707
 20
143.5257954987824
 30
0.0
 11
392.3486139037705
 21
143.7264830201825
 31
0.0
  0
LINE
  5
2E9
330
21
100
AcDbEntity
  8
1
100
AcDbLine
 10
356.27714820867
 20
118.5235650571826
 30
0.0
 11
355.6634049910717
 21
118.4153455686824
 31
0.0
  0
LINE
  5
2EA
330
21
100
AcDbEntity
  8
1
100
AcDbLine
 10
391.8638316209708
 20
112.8987556970824
 30
0.0
 11
392.3486139037705
 21
112.6979523007826
 31
0.0
  0
LINE
  5
2EB
330
21
100
AcDbEntity
  8
1
100
AcDbLine
 10
392.449417324171
 20
114.3124846437827
 30
0.0
 11
392.9341996069707
 21
114.1116812474825
 31
0.0
  0
LINE
  5
2EC
330
21
100
AcDbEntity
  8
1
100
AcDbLine
 10
375.8262680621701
 20
113.1606638735825
 30
0.0
 11
375.7341996069699
 21
113.2527323287827
 31
0.0
  0
LINE
  5
2ED
330
21
100
AcDbEntity
  8
1
100
AcDbLine
 10
346.2579998296715
 20
143.1722473871823
 30
0.0
 11
345.9045675934703
 21
143.5256796243825
 31
0.0
  0
LINE
  5
2EE
330
21
100
AcDbEntity
  8
1
100
AcDbLine
 10
383.8442293336702
 20
105.5860178831826
 30
0.0
 11
384.1976615703716
 21
105.2325856464827
 31
0.0
  0
LINE
  5
2EF
330
21
100
AcDbEntity
  8
1
100
AcDbLine
 10
386.3664326539711
 20
103.4873439262824
 30
0.0
 11
386.0128792633714
 21
103.8408973168825
 31
0.0
  0
LINE
  5
2F0
330
21
100
AcDbEntity
  8
1
100
AcDbLine
 10
344.1593258727717
 20
145.6944507074827
 30
0.0
 11
344.5128792633714
 21
145.3408973168825
 31
0.0
  0
LINE
  5
2F1
330
21
100
AcDbEntity
  8
1
100
AcDbLine
 10
350.7180830834714
 20
140.6083428494826
 30
0.0
 11
348.4836256548715
 21
142.8428002780824
 31
0.0
  0
LINE
  5
2F2
330
21
100
AcDbEntity
  8
1
100
AcDbLine
 10
381.280324795971
 20
110.0461011369825
 30
0.0
 11
383.5147822245708
 21
107.8116437083827
 31
0.0
  0
LINE
  5
2F3
330
21
100
AcDbEntity
  8
1
100
AcDbLine
 10
348.5967627398713
 20
142.8428002780824
 30
0.0
 11
350.7180830834714
 21
140.7214799344824
 31
0.0
  0
LINE
  5
2F4
330
21
100
AcDbEntity
  8
1
100
AcDbLine
 10
381.3934618809708
 20
110.0461011369825
 30
0.0
 11
383.5147822245708
 21
107.9247807933825
 31
0.0
  0
LINE
  5
2F5
330
21
100
AcDbEntity
  8
1
100
AcDbLine
 10
353.5707376435712
 20
151.1918496744825
 30
0.0
 11
353.3699342472701
 21
151.6766319572826
 31
0.0
  0
LINE
  5
2F6
330
21
100
AcDbEntity
  8
1
100
AcDbLine
 10
354.984466590271
 20
151.7774353776827
 30
0.0
 11
354.7836631939699
 21
152.2622176604827
 31
0.0
  0
LINE
  5
2F7
330
21
100
AcDbEntity
  8
1
100
AcDbLine
 10
368.5748135786707
 20
143.8329521499827
 30
0.0
 11
368.681054273271
 21
144.4354730698824
 31
0.0
  0
LINE
  5
2F8
330
21
100
AcDbEntity
  8
1
100
AcDbLine
 10
369.1935856352702
 20
140.5914831709824
 30
0.0
 11
369.0873449406718
 21
139.9889622510827
 31
0.0
  0
LINE
  5
2F9
330
21
100
AcDbEntity
  8
1
100
AcDbLine
 10
348.0867122335712
 20
110.0310253774824
 30
0.0
 11
349.3533669957706
 21
111.2976801396826
 31
0.0
  0
LINE
  5
2FA
330
21
100
AcDbEntity
  8
1
100
AcDbLine
 10
385.7987371277704
 20
147.7430502716825
 30
0.0
 11
387.0653918899716
 21
149.0097050338827
 31
0.0
  0
LINE
  5
2FB
330
21
100
AcDbEntity
  8
1
100
AcDbLine
 10
346.252699224171
 20
108.0555910118824
 30
0.0
 11
349.4806462163706
 21
111.2835380040824
 31
0.0
  0
LINE
  5
2FC
330
21
100
AcDbEntity
  8
1
100
AcDbLine
 10
385.8128792633706
 20
147.6157710510824
 30
0.0
 11
389.0408262555702
 21
150.8437180432825
 31
0.0
  0
LINE
  5
2FD
330
21
100
AcDbEntity
  8
1
100
AcDbLine
 10
385.1074550163703
 20
128.0090723267826
 30
0.0
 11
384.5049340964706
 21
127.9028316321824
 31
0.0
  0
LINE
  5
2FE
330
21
100
AcDbEntity
  8
1
100
AcDbLine
 10
380.6609441975706
 20
128.4153629941825
 30
0.0
 11
381.2634651174703
 21
128.5216036887823
 31
0.0
  0
LINE
  5
2FF
330
21
100
AcDbEntity
  8
1
100
AcDbLine
 10
353.2634651174703
 20
127.9028316321824
 30
0.0
 11
352.6609441975706
 21
128.0090723267826
 31
0.0
  0
LINE
  5
300
330
21
100
AcDbEntity
  8
1
100
AcDbLine
 10
356.5049340964706
 20
128.5216036887823
 30
0.0
 11
357.1074550163703
 21
128.4153629941825
 31
0.0
  0
LINE
  5
301
330
21
100
AcDbEntity
  8
1
100
AcDbLine
 10
348.0867122335712
 20
146.3934099434828
 30
0.0
 11
349.3533669957706
 21
145.1267551812825
 31
0.0
  0
LINE
  5
302
330
21
100
AcDbEntity
  8
1
100
AcDbLine
 10
385.7987371277704
 20
108.6813850492827
 30
0.0
 11
387.0653918899716
 21
107.4147302870824
 31
0.0
  0
LINE
  5
303
330
21
100
AcDbEntity
  8
1
100
AcDbLine
 10
346.252699224171
 20
148.3688443090823
 30
0.0
 11
349.4806462163706
 21
145.1408973168827
 31
0.0
  0
LINE
  5
304
330
21
100
AcDbEntity
  8
1
100
AcDbLine
 10
385.8128792633706
 20
108.8086642698827
 30
0.0
 11
389.0408262555702
 21
105.5807172776827
 31
0.0
  0
LINE
  5
305
330
21
100
AcDbEntity
  8
1
100
AcDbLine
 10
382.7839326236699
 20
151.7774353776827
 30
0.0
 11
382.984736019971
 21
152.2622176604827
 31
0.0
  0
LINE
  5
306
330
21
100
AcDbEntity
  8
1
100
AcDbLine
 10
363.034199606971
 20
116.2890125796825
 30
0.0
 11
362.8858315550715
 21
116.1176984340827
 31
0.0
  0
LINE
  5
307
330
21
100
AcDbEntity
  8
1
100
AcDbLine
 10
348.7275729583707
 20
105.5807172776827
 30
0.0
 11
351.9555199505703
 21
108.8086642698827
 31
0.0
  0
LINE
  5
308
330
21
100
AcDbEntity
  8
1
100
AcDbLine
 10
388.2877529975704
 20
145.1408973168827
 30
0.0
 11
391.5156999897699
 21
148.3688443090823
 31
0.0
  0
LINE
  5
309
330
21
100
AcDbEntity
  8
1
100
AcDbLine
 10
350.7030073239712
 20
107.4147302870824
 30
0.0
 11
351.9696620861705
 21
108.6813850492827
 31
0.0
  0
LINE
  5
30A
330
21
100
AcDbEntity
  8
1
100
AcDbLine
 10
388.4150322181704
 20
145.1267551812825
 30
0.0
 11
389.6816869803715
 21
146.3934099434828
 31
0.0
  0
LINE
  5
30B
330
21
100
AcDbEntity
  8
1
100
AcDbLine
 10
354.2536169893701
 20
107.9247807933825
 30
0.0
 11
356.3749373329701
 21
110.0461011369825
 31
0.0
  0
LINE
  5
30C
330
21
100
AcDbEntity
  8
1
100
AcDbLine
 10
387.0503161304714
 20
140.7214799344824
 30
0.0
 11
389.1716364740714
 21
142.8428002780824
 31
0.0
  0
LINE
  5
30D
330
21
100
AcDbEntity
  8
1
100
AcDbLine
 10
389.2847735590713
 20
142.8428002780824
 30
0.0
 11
387.0503161304714
 21
140.6083428494826
 31
0.0
  0
LINE
  5
30E
330
21
100
AcDbEntity
  8
1
100
AcDbLine
 10
354.2536169893701
 20
107.8116437083827
 30
0.0
 11
356.48807441797
 21
110.0461011369825
 31
0.0
  0
LINE
  5
30F
330
21
100
AcDbEntity
  8
1
100
AcDbLine
 10
345.3189818897699
 20
114.3124846437827
 30
0.0
 11
344.8341996069703
 21
114.1116812474825
 31
0.0
  0
LINE
  5
310
330
21
100
AcDbEntity
  8
1
100
AcDbLine
 10
357.1074550163703
 20
128.0090723267826
 30
0.0
 11
356.5049340964706
 21
127.9028316321824
 31
0.0
  0
LINE
  5
311
330
21
100
AcDbEntity
  8
1
100
AcDbLine
 10
352.6609441975706
 20
128.4153629941825
 30
0.0
 11
353.2634651174703
 21
128.5216036887823
 31
0.0
  0
LINE
  5
312
330
21
100
AcDbEntity
  8
1
100
AcDbLine
 10
381.2634651174703
 20
127.9028316321824
 30
0.0
 11
380.6609441975706
 21
128.0090723267826
 31
0.0
  0
LINE
  5
313
330
21
100
AcDbEntity
  8
1
100
AcDbLine
 10
384.5049340964706
 20
128.5216036887823
 30
0.0
 11
385.1074550163703
 21
128.4153629941825
 31
0.0
  0
LINE
  5
314
330
21
100
AcDbEntity
  8
1
100
AcDbLine
 10
345.3189818897699
 20
142.1119506771824
 30
0.0
 11
344.8341996069703
 21
142.3127540734827
 31
0.0
  0
LINE
  5
315
330
21
100
AcDbEntity
  8
1
100
AcDbLine
 10
348.7275729583707
 20
150.8437180432825
 30
0.0
 11
351.9555199505703
 21
147.6157710510824
 31
0.0
  0
LINE
  5
316
330
21
100
AcDbEntity
  8
1
100
AcDbLine
 10
388.2877529975704
 20
111.2835380040824
 30
0.0
 11
391.5156999897699
 21
108.0555910118824
 31
0.0
  0
LINE
  5
317
330
21
100
AcDbEntity
  8
1
100
AcDbLine
 10
350.7030073239712
 20
149.0097050338827
 30
0.0
 11
351.9696620861705
 21
147.7430502716825
 31
0.0
  0
LINE
  5
318
330
21
100
AcDbEntity
  8
1
100
AcDbLine
 10
388.4150322181704
 20
111.2976801396826
 30
0.0
 11
389.6816869803715
 21
110.0310253774824
 31
0.0
  0
LINE
  5
319
330
21
100
AcDbEntity
  8
1
100
AcDbLine
 10
389.1716364740714
 20
113.5816350428827
 30
0.0
 11
387.0503161304714
 21
115.7029553864827
 31
0.0
  0
LINE
  5
31A
330
21
100
AcDbEntity
  8
1
100
AcDbLine
 10
356.3749373329701
 20
146.3783341839826
 30
0.0
 11
354.2536169893701
 21
148.4996545275826
 31
0.0
  0
LINE
  5
31B
330
21
100
AcDbEntity
  8
1
100
AcDbLine
 10
356.48807441797
 20
146.3783341839826
 30
0.0
 11
354.2536169893701
 21
148.6127916125824
 31
0.0
  0
LINE
  5
31C
330
21
100
AcDbEntity
  8
1
100
AcDbLine
 10
387.0503161304714
 20
115.8160924714825
 30
0.0
 11
389.2847735590713
 21
113.5816350428827
 31
0.0
  0
LINE
  5
31D
330
21
100
AcDbEntity
  8
1
100
AcDbLine
 10
382.7839326236699
 20
104.6469999432825
 30
0.0
 11
382.984736019971
 21
104.1622176604824
 31
0.0
  0
LINE
  5
31E
330
21
100
AcDbEntity
  8
1
100
AcDbLine
 10
368.681054273271
 20
139.9889622510827
 30
0.0
 11
368.5748135786707
 21
140.5914831709824
 31
0.0
  0
LINE
  5
31F
330
21
100
AcDbEntity
  8
1
100
AcDbLine
 10
369.0873449406718
 20
144.4354730698824
 30
0.0
 11
369.1935856352702
 21
143.8329521499827
 31
0.0
  0
LINE
  5
320
330
21
100
AcDbEntity
  8
1
100
AcDbLine
 10
374.7341996069699
 20
118.6122176604827
 30
0.0
 11
374.7341996069699
 21
117.1717029921824
 31
0.0
  0
LINE
  5
321
330
21
100
AcDbEntity
  8
1
100
AcDbLine
 10
374.7341996069699
 20
113.2527323287827
 30
0.0
 11
374.7341996069699
 21
104.3834886977825
 31
0.0
  0
LINE
  5
322
330
21
100
AcDbEntity
  8
1
100
AcDbLine
 10
374.9183505419714
 20
105.1468286057825
 30
0.0
 11
374.9183505419714
 21
113.1606638735825
 31
0.0
  0
LINE
  5
323
330
21
100
AcDbEntity
  8
1
100
AcDbLine
 10
374.9183505419714
 20
117.2637714473826
 30
0.0
 11
374.9183505419714
 21
118.7963685954824
 31
0.0
  0
LINE
  5
324
330
21
100
AcDbEntity
  8
1
100
AcDbLine
 10
375.7341996069699
 20
113.2527323287827
 30
0.0
 11
375.7341996069699
 21
117.1717029921824
 31
0.0
  0
LINE
  5
325
330
21
100
AcDbEntity
  8
1
100
AcDbLine
 10
375.8262680621701
 20
113.1606638735825
 30
0.0
 11
375.8262680621701
 21
117.2637714473826
 31
0.0
  0
LINE
  5
326
330
21
100
AcDbEntity
  8
1
100
AcDbLine
 10
384.1976615703716
 20
151.1918496744825
 30
0.0
 11
384.3984649666709
 21
151.6766319572826
 31
0.0
  0
LINE
  5
327
330
21
100
AcDbEntity
  8
1
100
AcDbLine
 10
393.6090733411711
 20
145.6944507074827
 30
0.0
 11
393.2555199505714
 21
145.3408973168825
 31
0.0
  0
LINE
  5
328
330
21
100
AcDbEntity
  8
1
100
AcDbLine
 10
351.4019665599699
 20
103.4873439262824
 30
0.0
 11
351.7555199505714
 21
103.8408973168825
 31
0.0
  0
LINE
  5
329
330
21
100
AcDbEntity
  8
1
100
AcDbLine
 10
353.9241698802707
 20
105.5860178831826
 30
0.0
 11
353.570737643071
 21
105.2325856469824
 31
0.0
  0
LINE
  5
32A
330
21
100
AcDbEntity
  8
1
100
AcDbLine
 10
391.5103993842713
 20
143.1722473871823
 30
0.0
 11
391.8638316209708
 21
143.5256796238828
 31
0.0
  0
LINE
  5
32B
330
21
100
AcDbEntity
  8
1
100
AcDbLine
 10
345.9046834679702
 20
112.8986398221823
 30
0.0
 11
345.4197853101705
 21
112.6979523007826
 31
0.0
  0
LINE
  5
32C
330
21
100
AcDbEntity
  8
1
100
AcDbLine
 10
345.9045675929701
 20
143.5256796238828
 30
0.0
 11
345.4197853101705
 21
143.7264830201825
 31
0.0
  0
LINE
  5
32D
330
21
100
AcDbEntity
  8
1
100
AcDbLine
 10
393.6090733411711
 20
110.7299846134824
 30
0.0
 11
393.2555199505714
 21
111.0835380040826
 31
0.0
  0
LINE
  5
32E
330
21
100
AcDbEntity
  8
1
100
AcDbLine
 10
351.4019665599699
 20
152.9370913946823
 30
0.0
 11
351.7555199505714
 21
152.5835380040826
 31
0.0
  0
LINE
  5
32F
330
21
100
AcDbEntity
  8
1
100
AcDbLine
 10
353.9241698802707
 20
150.8384174377825
 30
0.0
 11
353.5707376435712
 21
151.1918496744825
 31
0.0
  0
LINE
  5
330
330
21
100
AcDbEntity
  8
1
100
AcDbLine
 10
391.5103993842713
 20
113.2521879337824
 30
0.0
 11
391.8638316204706
 21
112.8987556965826
 31
0.0
  0
LINE
  5
331
330
21
100
AcDbEntity
  8
1
100
AcDbLine
 10
384.1977774452716
 20
105.2327015214823
 30
0.0
 11
384.3984649666709
 21
104.7478033636826
 31
0.0
  0
LINE
  5
332
330
21
100
AcDbEntity
  8
1
100
AcDbLine
 10
378.1341996069714
 20
164.1622176604824
 30
0.0
 11
378.1341996069714
 21
163.8122176604825
 31
0.0
  0
LINE
  5
333
330
21
100
AcDbEntity
  8
1
100
AcDbLine
 10
378.1341996069714
 20
92.26221766048229
 30
0.0
 11
378.1341996069714
 21
92.61221766048266
 31
0.0
  0
LINE
  5
334
330
21
100
AcDbEntity
  8
1
100
AcDbLine
 10
378.3841996069714
 20
92.1624918509824
 30
0.0
 11
378.3841996069714
 21
92.61221766048266
 31
0.0
  0
LINE
  5
335
330
21
100
AcDbEntity
  8
1
100
AcDbLine
 10
378.3841996069714
 20
163.8122176604825
 30
0.0
 11
378.3841996069714
 21
164.2619434699827
 31
0.0
  0
LINE
  5
336
330
21
100
AcDbEntity
  8
1
100
AcDbLine
 10
374.7341996069699
 20
118.6122176604827
 30
0.0
 11
374.9183505419714
 21
118.7963685954824
 31
0.0
  0
LINE
  5
337
330
21
100
AcDbEntity
  8
1
100
AcDbLine
 10
375.8262680621701
 20
117.2637714473826
 30
0.0
 11
375.7341996069699
 21
117.1717029921824
 31
0.0
  0
LINE
  5
338
330
21
100
AcDbEntity
  8
1
100
AcDbLine
 10
374.9183505419714
 20
117.2637714473826
 30
0.0
 11
374.7341996069699
 21
117.1717029921824
 31
0.0
  0
LINE
  5
339
330
21
100
AcDbEntity
  8
1
100
AcDbLine
 10
382.3841996069714
 20
92.1624918509824
 30
0.0
 11
382.3841996069714
 21
92.61221766048266
 31
0.0
  0
LINE
  5
33A
330
21
100
AcDbEntity
  8
1
100
AcDbLine
 10
382.3841996069714
 20
163.8122176604825
 30
0.0
 11
382.3841996069714
 21
164.2619434699827
 31
0.0
  0
LINE
  5
33B
330
21
100
AcDbEntity
  8
1
100
AcDbLine
 10
382.6341996069714
 20
164.1622176604824
 30
0.0
 11
382.6341996069714
 21
163.8122176604825
 31
0.0
  0
LINE
  5
33C
330
21
100
AcDbEntity
  8
1
100
AcDbLine
 10
382.6341996069714
 20
92.26221766048229
 30
0.0
 11
382.6341996069714
 21
92.61221766048266
 31
0.0
  0
LINE
  5
33D
330
21
100
AcDbEntity
  8
1
100
AcDbLine
 10
382.7839326236699
 20
105.1468286057825
 30
0.0
 11
382.7839326228714
 21
104.6469999432825
 31
0.0
  0
LINE
  5
33E
330
21
100
AcDbEntity
  8
1
100
AcDbLine
 10
382.7839326236699
 20
151.2776067151826
 30
0.0
 11
382.7839326236699
 21
151.7774353776827
 31
0.0
  0
LINE
  5
33F
330
21
100
AcDbEntity
  8
1
100
AcDbLine
 10
383.8915589198714
 20
153.9622176604826
 30
0.0
 11
383.8915589198714
 21
153.4622176604826
 31
0.0
  0
LINE
  5
340
330
21
100
AcDbEntity
  8
1
100
AcDbLine
 10
383.8915589198714
 20
102.4622176604826
 30
0.0
 11
383.8915589198714
 21
102.9622176604826
 31
0.0
  0
LINE
  5
341
330
21
100
AcDbEntity
  8
1
100
AcDbLine
 10
385.6341996069714
 20
90.36221766048266
 30
0.0
 11
385.6341996069714
 21
92.26221766048229
 31
0.0
  0
LINE
  5
342
330
21
100
AcDbEntity
  8
1
100
AcDbLine
 10
385.6341996069714
 20
164.1622176604824
 30
0.0
 11
385.6341996069714
 21
166.0622176604825
 31
0.0
  0
LINE
  5
343
330
21
100
AcDbEntity
  8
1
100
AcDbLine
 10
382.5748135786707
 20
129.8329521499827
 30
0.0
 11
382.681054273271
 21
130.4354730698824
 31
0.0
  0
LINE
  5
344
330
21
100
AcDbEntity
  8
1
100
AcDbLine
 10
383.1935856352702
 20
126.5914831709824
 30
0.0
 11
383.0873449406699
 21
125.9889622510827
 31
0.0
  0
LINE
  5
345
330
21
100
AcDbEntity
  8
1
100
AcDbLine
 10
371.1074550163703
 20
142.0090723267826
 30
0.0
 11
370.5049340964706
 21
141.9028316321824
 31
0.0
  0
LINE
  5
346
330
21
100
AcDbEntity
  8
1
100
AcDbLine
 10
366.6609441975706
 20
142.4153629941825
 30
0.0
 11
367.2634651174703
 21
142.5216036887823
 31
0.0
  0
LINE
  5
347
330
21
100
AcDbEntity
  8
1
100
AcDbLine
 10
345.8188105522713
 20
142.1119506771824
 30
0.0
 11
345.3189818897699
 21
142.1119506771824
 31
0.0
  0
LINE
  5
348
330
21
100
AcDbEntity
  8
1
100
AcDbLine
 10
391.9495886616714
 20
142.1119506771824
 30
0.0
 11
392.449417324171
 21
142.1119506763825
 31
0.0
  0
LINE
  5
349
330
21
100
AcDbEntity
  8
1
100
AcDbLine
 10
394.6341996069714
 20
143.2195769733826
 30
0.0
 11
394.1341996069714
 21
143.2195769733826
 31
0.0
  0
LINE
  5
34A
330
21
100
AcDbEntity
  8
1
100
AcDbLine
 10
343.1341996069714
 20
143.2195769733826
 30
0.0
 11
343.6341996069714
 21
143.2195769733826
 31
0.0
  0
LINE
  5
34B
330
21
100
AcDbEntity
  8
1
100
AcDbLine
 10
367.2634651174703
 20
141.9028316321824
 30
0.0
 11
366.6609441975706
 21
142.0090723267826
 31
0.0
  0
LINE
  5
34C
330
21
100
AcDbEntity
  8
1
100
AcDbLine
 10
370.5049340964706
 20
142.5216036887823
 30
0.0
 11
371.1074550163703
 21
142.4153629941825
 31
0.0
  0
LINE
  5
34D
330
21
100
AcDbEntity
  8
1
100
AcDbLine
 10
382.681054273271
 20
125.9889622510827
 30
0.0
 11
382.5748135786707
 21
126.5914831709824
 31
0.0
  0
LINE
  5
34E
330
21
100
AcDbEntity
  8
1
100
AcDbLine
 10
383.0873449406699
 20
130.4354730698824
 30
0.0
 11
383.1935856352702
 21
129.8329521499827
 31
0.0
  0
LINE
  5
34F
330
21
100
AcDbEntity
  8
1
100
AcDbLine
 10
385.7341996069699
 20
165.7122176604826
 30
0.0
 11
385.7341996069699
 21
163.9122176604824
 31
0.0
  0
LINE
  5
350
330
21
100
AcDbEntity
  8
1
100
AcDbLine
 10
385.7341996069699
 20
90.71221766048257
 30
0.0
 11
385.7341996069699
 21
92.51221766048229
 31
0.0
  0
LINE
  5
351
330
21
100
AcDbEntity
  8
1
100
AcDbLine
 10
387.1341996069714
 20
165.2122176604826
 30
0.0
 11
387.1341996069714
 21
165.1122176604827
 31
0.0
  0
LINE
  5
352
330
21
100
AcDbEntity
  8
1
100
AcDbLine
 10
387.1341996069714
 20
91.31221766048247
 30
0.0
 11
387.1341996069714
 21
91.21221766048257
 31
0.0
  0
LINE
  5
353
330
21
100
AcDbEntity
  8
1
100
AcDbLine
 10
374.9098514696707
 20
104.6469999432825
 30
0.0
 11
374.7341996069699
 21
104.3834886977825
 31
0.0
  0
LINE
  5
354
330
21
100
AcDbEntity
  8
1
100
AcDbLine
 10
381.280324795971
 20
111.4603146993827
 30
0.0
 11
385.6361025680708
 21
115.8160924714825
 31
0.0
  0
LINE
  5
355
330
21
100
AcDbEntity
  8
1
100
AcDbLine
 10
385.6361025680708
 20
115.7029553864827
 30
0.0
 11
381.3934618809708
 21
111.4603146993827
 31
0.0
  0
LINE
  5
356
330
21
100
AcDbEntity
  8
1
100
AcDbLine
 10
385.6361025680708
 20
140.6083428494826
 30
0.0
 11
381.280324795971
 21
144.9641206215824
 31
0.0
  0
LINE
  5
357
330
21
100
AcDbEntity
  8
1
100
AcDbLine
 10
381.3934618809708
 20
144.9641206215824
 30
0.0
 11
385.6361025680708
 21
140.7214799344824
 31
0.0
  0
LINE
  5
358
330
21
100
AcDbEntity
  8
1
100
AcDbLine
 10
391.9495886616714
 20
114.3124846437827
 30
0.0
 11
391.9495886616714
 21
142.1119506771824
 31
0.0
  0
LINE
  5
359
330
21
100
AcDbEntity
  8
1
100
AcDbLine
 10
392.449417324171
 20
114.3124846437827
 30
0.0
 11
392.449417324171
 21
142.1119506771824
 31
0.0
  0
LINE
  5
35A
330
21
100
AcDbEntity
  8
1
100
AcDbLine
 10
392.9341996069707
 20
114.1116812474825
 30
0.0
 11
392.9341996069707
 21
142.3127540734827
 31
0.0
  0
LINE
  5
35B
330
21
100
AcDbEntity
  8
1
100
AcDbLine
 10
393.1341996069714
 20
113.2048583475826
 30
0.0
 11
393.1341996069714
 21
143.2195769733826
 31
0.0
  0
LINE
  5
35C
330
21
100
AcDbEntity
  8
1
100
AcDbLine
 10
382.7839326236699
 20
151.2776067151826
 30
0.0
 11
354.984466590271
 21
151.2776067151826
 31
0.0
  0
LINE
  5
35D
330
21
100
AcDbEntity
  8
1
100
AcDbLine
 10
382.7839326236699
 20
151.7774353776827
 30
0.0
 11
354.984466590271
 21
151.7774353776827
 31
0.0
  0
LINE
  5
35E
330
21
100
AcDbEntity
  8
1
100
AcDbLine
 10
382.984736019971
 20
152.2622176604827
 30
0.0
 11
354.7836631939699
 21
152.2622176604827
 31
0.0
  0
LINE
  5
35F
330
21
100
AcDbEntity
  8
1
100
AcDbLine
 10
383.8915589198714
 20
152.4622176604826
 30
0.0
 11
353.8768402940714
 21
152.4622176604826
 31
0.0
  0
LINE
  5
360
330
21
100
AcDbEntity
  8
1
100
AcDbLine
 10
394.1341996069714
 20
143.2195769733826
 30
0.0
 11
394.1341996069714
 21
113.2048583475826
 31
0.0
  0
LINE
  5
361
330
21
100
AcDbEntity
  8
1
100
AcDbLine
 10
394.6341996069714
 20
113.2048583475826
 30
0.0
 11
394.6341996069714
 21
143.2195769733826
 31
0.0
  0
LINE
  5
362
330
21
100
AcDbEntity
  8
1
100
AcDbLine
 10
384.9289957869714
 20
107.9247807933825
 30
0.0
 11
385.8128792633706
 21
108.8086642698827
 31
0.0
  0
LINE
  5
363
330
21
100
AcDbEntity
  8
1
100
AcDbLine
 10
388.2877529975704
 20
111.2835380040824
 30
0.0
 11
389.1716364740714
 21
112.1674214804825
 31
0.0
  0
LINE
  5
364
330
21
100
AcDbEntity
  8
1
100
AcDbLine
 10
384.9289957869714
 20
107.8116437083827
 30
0.0
 11
385.7987371277704
 21
108.6813850492827
 31
0.0
  0
LINE
  5
365
330
21
100
AcDbEntity
  8
1
100
AcDbLine
 10
388.4150322181704
 20
111.2976801396826
 30
0.0
 11
389.2847735590713
 21
112.1674214804825
 31
0.0
  0
LINE
  5
366
330
21
100
AcDbEntity
  8
1
100
AcDbLine
 10
385.8237765385711
 20
108.6563456385825
 30
0.0
 11
385.8944872166703
 21
108.7270563166826
 31
0.0
  0
LINE
  5
367
330
21
100
AcDbEntity
  8
1
100
AcDbLine
 10
388.36936095077
 20
111.2019300507827
 30
0.0
 11
388.440071628871
 21
111.2726407288824
 31
0.0
  0
LINE
  5
368
330
21
100
AcDbEntity
  8
1
100
AcDbLine
 10
385.9831008033707
 20
108.6384427299827
 30
0.0
 11
388.4579745374704
 21
111.1133164640823
 31
0.0
  0
LINE
  5
369
330
21
100
AcDbEntity
  8
1
100
AcDbLine
 10
383.8442293336702
 20
105.5860178831826
 30
0.0
 11
386.3691668137708
 21
108.1109553632823
 31
0.0
  0
LINE
  5
36A
330
21
100
AcDbEntity
  8
1
100
AcDbLine
 10
388.9854619041707
 20
110.7272504536827
 30
0.0
 11
391.5103993842713
 21
113.2521879337824
 31
0.0
  0
LINE
  5
36B
330
21
100
AcDbEntity
  8
1
100
AcDbLine
 10
386.389268117171
 20
108.0908540598825
 30
0.0
 11
386.4599787953703
 21
108.1615647379826
 31
0.0
  0
LINE
  5
36C
330
21
100
AcDbEntity
  8
1
100
AcDbLine
 10
388.9348525294699
 20
110.6364384720823
 30
0.0
 11
389.005563207571
 21
110.7071491502825
 31
0.0
  0
LINE
  5
36D
330
21
100
AcDbEntity
  8
1
100
AcDbLine
 10
386.6211671048713
 20
108.0003764284825
 30
0.0
 11
389.096040838971
 21
110.4752501625826
 31
0.0
  0
LINE
  5
36E
330
21
100
AcDbEntity
  8
1
100
AcDbLine
 10
389.32813358977
 20
110.3845787680825
 30
0.0
 11
389.2574229116708
 21
110.3138680898824
 31
0.0
  0
LINE
  5
36F
330
21
100
AcDbEntity
  8
1
100
AcDbLine
 10
386.7825491775711
 20
107.8389943557827
 30
0.0
 11
386.7118384993701
 21
107.7682836776826
 31
0.0
  0
LINE
  5
370
330
21
100
AcDbEntity
  8
1
100
AcDbLine
 10
384.1977774452716
 20
105.2327015214823
 30
0.0
 11
386.7225990504703
 21
107.7575231265823
 31
0.0
  0
LINE
  5
371
330
21
100
AcDbEntity
  8
1
100
AcDbLine
 10
389.3388941408703
 20
110.3738182169827
 30
0.0
 11
391.8638316209708
 21
112.8987556970824
 31
0.0
  0
LINE
  5
372
330
21
100
AcDbEntity
  8
1
100
AcDbLine
 10
384.3984649666709
 20
104.7478033636826
 30
0.0
 11
387.0653918899716
 21
107.4147302870824
 31
0.0
  0
LINE
  5
373
330
21
100
AcDbEntity
  8
1
100
AcDbLine
 10
389.6816869803715
 20
110.0310253774824
 30
0.0
 11
392.3486139037705
 21
112.6979523007826
 31
0.0
  0
LINE
  5
374
330
21
100
AcDbEntity
  8
1
100
AcDbLine
 10
385.3057724822702
 20
104.5480040980824
 30
0.0
 11
387.6896559586712
 21
106.9318875745826
 31
0.0
  0
LINE
  5
375
330
21
100
AcDbEntity
  8
1
100
AcDbLine
 10
390.1645296928709
 20
109.4067613087827
 30
0.0
 11
392.5484131693702
 21
111.7906447851824
 31
0.0
  0
LINE
  5
376
330
21
100
AcDbEntity
  8
1
100
AcDbLine
 10
353.8768402940714
 20
153.4622176604826
 30
0.0
 11
383.8915589198714
 21
153.4622176604826
 31
0.0
  0
LINE
  5
377
330
21
100
AcDbEntity
  8
1
100
AcDbLine
 10
383.8915589198714
 20
153.9622176604826
 30
0.0
 11
353.8768402940714
 21
153.9622176604826
 31
0.0
  0
LINE
  5
378
330
21
100
AcDbEntity
  8
1
100
AcDbLine
 10
389.1716364740714
 20
144.2570138404826
 30
0.0
 11
388.2877529975704
 21
145.1408973168827
 31
0.0
  0
LINE
  5
379
330
21
100
AcDbEntity
  8
1
100
AcDbLine
 10
385.8128792633706
 20
147.6157710510824
 30
0.0
 11
384.9289957869714
 21
148.4996545275826
 31
0.0
  0
LINE
  5
37A
330
21
100
AcDbEntity
  8
1
100
AcDbLine
 10
389.2847735590713
 20
144.2570138404826
 30
0.0
 11
388.4150322181704
 21
145.1267551812825
 31
0.0
  0
LINE
  5
37B
330
21
100
AcDbEntity
  8
1
100
AcDbLine
 10
385.7987371277704
 20
147.7430502716825
 30
0.0
 11
384.9289957869714
 21
148.6127916125824
 31
0.0
  0
LINE
  5
37C
330
21
100
AcDbEntity
  8
1
100
AcDbLine
 10
388.440071628871
 20
145.1517945920823
 30
0.0
 11
388.36936095077
 21
145.2225052701824
 31
0.0
  0
LINE
  5
37D
330
21
100
AcDbEntity
  8
1
100
AcDbLine
 10
385.8944872166703
 20
147.6973790042825
 30
0.0
 11
385.8237765385711
 21
147.7680896823827
 31
0.0
  0
LINE
  5
37E
330
21
100
AcDbEntity
  8
1
100
AcDbLine
 10
388.4579745374704
 20
145.3111188568823
 30
0.0
 11
385.9831008033707
 21
147.7859925909825
 31
0.0
  0
LINE
  5
37F
330
21
100
AcDbEntity
  8
1
100
AcDbLine
 10
391.5103993842713
 20
143.1722473871823
 30
0.0
 11
388.9854619041707
 21
145.6971848672824
 31
0.0
  0
LINE
  5
380
330
21
100
AcDbEntity
  8
1
100
AcDbLine
 10
386.3691668137708
 20
148.3134799576824
 30
0.0
 11
383.8442293336702
 21
150.8384174377825
 31
0.0
  0
LINE
  5
381
330
21
100
AcDbEntity
  8
1
100
AcDbLine
 10
389.005563207571
 20
145.7172861706827
 30
0.0
 11
388.9348525294699
 21
145.7879968488824
 31
0.0
  0
LINE
  5
382
330
21
100
AcDbEntity
  8
1
100
AcDbLine
 10
386.4599787953703
 20
148.2628705829825
 30
0.0
 11
386.389268117171
 21
148.3335812610826
 31
0.0
  0
LINE
  5
383
330
21
100
AcDbEntity
  8
1
100
AcDbLine
 10
389.096040838971
 20
145.9491851583825
 30
0.0
 11
386.6211671048713
 21
148.4240588924827
 31
0.0
  0
LINE
  5
384
330
21
100
AcDbEntity
  8
1
100
AcDbLine
 10
386.7118384993701
 20
148.6561516432826
 30
0.0
 11
386.7825491775711
 21
148.5854409651824
 31
0.0
  0
LINE
  5
385
330
21
100
AcDbEntity
  8
1
100
AcDbLine
 10
389.2574229116708
 20
146.1105672310823
 30
0.0
 11
389.32813358977
 21
146.0398565528826
 31
0.0
  0
LINE
  5
386
330
21
100
AcDbEntity
  8
1
100
AcDbLine
 10
391.8637157459707
 20
143.5257954987824
 30
0.0
 11
389.3388941408703
 21
146.0506171039824
 31
0.0
  0
LINE
  5
387
330
21
100
AcDbEntity
  8
1
100
AcDbLine
 10
386.7225990504703
 20
148.6669121943823
 30
0.0
 11
384.1976615703716
 21
151.1918496744825
 31
0.0
  0
LINE
  5
388
330
21
100
AcDbEntity
  8
1
100
AcDbLine
 10
392.3486139037705
 20
143.7264830201825
 30
0.0
 11
389.6816869803715
 21
146.3934099434828
 31
0.0
  0
LINE
  5
389
330
21
100
AcDbEntity
  8
1
100
AcDbLine
 10
387.0653918899716
 20
149.0097050338827
 30
0.0
 11
384.3984649666709
 21
151.6766319572826
 31
0.0
  0
LINE
  5
38A
330
21
100
AcDbEntity
  8
1
100
AcDbLine
 10
392.5484131693702
 20
144.6337905357823
 30
0.0
 11
390.1645296928709
 21
147.0176740121824
 31
0.0
  0
LINE
  5
38B
330
21
100
AcDbEntity
  8
1
100
AcDbLine
 10
387.6896559586712
 20
149.4925477463826
 30
0.0
 11
385.3057724822702
 21
151.8764312228827
 31
0.0
  0
LINE
  5
38C
330
21
100
AcDbEntity
  8
1
100
AcDbLine
 10
388.3617156969704
 20
106.2598278363826
 30
0.0
 11
390.83658943107
 21
108.7347015704827
 31
0.0
  0
LINE
  5
38D
330
21
100
AcDbEntity
  8
1
100
AcDbLine
 10
393.2555199505714
 20
111.0835380040826
 30
0.0
 11
390.8716364740703
 21
108.6996545275824
 31
0.0
  0
LINE
  5
38E
330
21
100
AcDbEntity
  8
1
100
AcDbLine
 10
388.3967627398706
 20
106.2247807933827
 30
0.0
 11
386.0128792633714
 21
103.8408973168825
 31
0.0
  0
LINE
  5
38F
330
21
100
AcDbEntity
  8
1
100
AcDbLine
 10
388.7351759123703
 20
105.8863676208825
 30
0.0
 11
391.2100496465719
 21
108.3612413550827
 31
0.0
  0
LINE
  5
390
330
21
100
AcDbEntity
  8
1
100
AcDbLine
 10
386.3664326539711
 20
103.4873439262824
 30
0.0
 11
388.7503161304703
 21
105.8712274027826
 31
0.0
  0
LINE
  5
391
330
21
100
AcDbEntity
  8
1
100
AcDbLine
 10
391.2251898646718
 20
108.3461011369827
 30
0.0
 11
393.6090733411711
 21
110.7299846134824
 31
0.0
  0
LINE
  5
392
330
21
100
AcDbEntity
  8
1
100
AcDbLine
 10
389.0398027464707
 20
105.5817407867826
 30
0.0
 11
391.5146764806705
 21
108.0566145209823
 31
0.0
  0
LINE
  5
393
330
21
100
AcDbEntity
  8
1
100
AcDbLine
 10
389.0408275065711
 20
105.5807160266827
 30
0.0
 11
391.5157012407708
 21
108.0555897608824
 31
0.0
  0
LINE
  5
394
330
21
100
AcDbEntity
  8
1
100
AcDbLine
 10
390.83658943107
 20
147.6897337504824
 30
0.0
 11
388.3617156969704
 21
150.1646074845826
 31
0.0
  0
LINE
  5
395
330
21
100
AcDbEntity
  8
1
100
AcDbLine
 10
386.0128792633714
 20
152.5835380040826
 30
0.0
 11
388.3967627398706
 21
150.1996545275824
 31
0.0
  0
LINE
  5
396
330
21
100
AcDbEntity
  8
1
100
AcDbLine
 10
390.8716364740703
 20
147.7247807933827
 30
0.0
 11
393.2555199505714
 21
145.3408973168825
 31
0.0
  0
LINE
  5
397
330
21
100
AcDbEntity
  8
1
100
AcDbLine
 10
391.2100496465719
 20
148.0631939658824
 30
0.0
 11
388.7351759123703
 21
150.5380677000826
 31
0.0
  0
LINE
  5
398
330
21
100
AcDbEntity
  8
1
100
AcDbLine
 10
393.6090733411711
 20
145.6944507074827
 30
0.0
 11
391.2251898646718
 21
148.0783341839824
 31
0.0
  0
LINE
  5
399
330
21
100
AcDbEntity
  8
1
100
AcDbLine
 10
388.7503161304703
 20
150.5532079181826
 30
0.0
 11
386.3664326539711
 21
152.9370913946823
 31
0.0
  0
LINE
  5
39A
330
21
100
AcDbEntity
  8
1
100
AcDbLine
 10
391.5146764806705
 20
148.3678207999824
 30
0.0
 11
389.0398027464707
 21
150.8426945341826
 31
0.0
  0
LINE
  5
39B
330
21
100
AcDbEntity
  8
1
100
AcDbLine
 10
391.5157012407708
 20
148.3688455600823
 30
0.0
 11
389.0408275065711
 21
150.8437192942824
 31
0.0
  0
LINE
  5
39C
330
21
100
AcDbEntity
  8
1
100
AcDbLine
 10
403.3841996069714
 20
165.1122176604827
 30
0.0
 11
403.3841996069714
 21
164.7122176604826
 31
0.0
  0
LINE
  5
39D
330
21
100
AcDbEntity
  8
1
100
AcDbLine
 10
403.3841996069714
 20
91.31221766048247
 30
0.0
 11
403.3841996069714
 21
91.71221766048257
 31
0.0
  0
LINE
  5
39E
330
21
100
AcDbEntity
  8
1
100
AcDbLine
 10
403.3941996069716
 20
165.1122176604827
 30
0.0
 11
403.3941996069716
 21
164.7122176604826
 31
0.0
  0
LINE
  5
39F
330
21
100
AcDbEntity
  8
1
100
AcDbLine
 10
403.3941996069716
 20
91.71221766048257
 30
0.0
 11
403.3941996069716
 21
91.31221766048247
 31
0.0
  0
LINE
  5
3A0
330
21
100
AcDbEntity
  8
1
100
AcDbLine
 10
404.4841996069699
 20
162.8122176604825
 30
0.0
 11
404.4841996069699
 21
93.61221766048266
 31
0.0
  0
LINE
  5
3A1
330
21
100
AcDbEntity
  8
1
100
AcDbLine
 10
404.5841996069703
 20
163.7122176604826
 30
0.0
 11
404.5841996069703
 21
92.71221766048257
 31
0.0
  0
LINE
  5
3A2
330
21
100
AcDbEntity
  8
1
100
AcDbLine
 10
405.3841996069714
 20
92.71221766048257
 30
0.0
 11
405.3841996069714
 21
163.7122176604826
 31
0.0
  0
LINE
  5
3A3
330
21
100
AcDbEntity
  8
1
100
AcDbLine
 10
405.534199606971
 20
164.1122176604827
 30
0.0
 11
405.534199606971
 21
92.31221766048247
 31
0.0
  0
LINE
  5
3A4
330
21
100
AcDbEntity
  8
1
100
AcDbLine
 10
334.284199606971
 20
163.8122176604825
 30
0.0
 11
403.4841996069699
 21
163.8122176604825
 31
0.0
  0
LINE
  5
3A5
330
21
100
AcDbEntity
  8
1
100
AcDbLine
 10
359.3841996069714
 20
163.8535664858828
 30
0.0
 11
355.3841996069714
 21
163.8535664858828
 31
0.0
  0
LINE
  5
3A6
330
21
100
AcDbEntity
  8
1
100
AcDbLine
 10
378.3841996069714
 20
163.8535664858828
 30
0.0
 11
382.3841996069714
 21
163.8535664858828
 31
0.0
  0
LINE
  5
3A7
330
21
100
AcDbEntity
  8
1
100
AcDbLine
 10
333.3841996069714
 20
163.9122176604824
 30
0.0
 11
352.034199606971
 21
163.9122176604824
 31
0.0
  0
LINE
  5
3A8
330
21
100
AcDbEntity
  8
1
100
AcDbLine
 10
385.7341996069699
 20
163.9122176604824
 30
0.0
 11
404.3841996069714
 21
163.9122176604824
 31
0.0
  0
LINE
  5
3A9
330
21
100
AcDbEntity
  8
1
100
AcDbLine
 10
355.3841996069714
 20
164.1622176604824
 30
0.0
 11
352.034199606971
 21
164.1622176604824
 31
0.0
  0
LINE
  5
3AA
330
21
100
AcDbEntity
  8
1
100
AcDbLine
 10
359.3841996069714
 20
164.1622176604824
 30
0.0
 11
378.3841996069714
 21
164.1622176604824
 31
0.0
  0
LINE
  5
3AB
330
21
100
AcDbEntity
  8
1
100
AcDbLine
 10
382.3841996069714
 20
164.1622176604824
 30
0.0
 11
385.7341996069699
 21
164.1622176604824
 31
0.0
  0
LINE
  5
3AC
330
21
100
AcDbEntity
  8
1
100
AcDbLine
 10
352.1341996069714
 20
164.1956142232825
 30
0.0
 11
355.3841996069714
 21
164.1956142232825
 31
0.0
  0
LINE
  5
3AD
330
21
100
AcDbEntity
  8
1
100
AcDbLine
 10
359.3841996069714
 20
164.1956142232825
 30
0.0
 11
378.3841996069714
 21
164.1956142232825
 31
0.0
  0
LINE
  5
3AE
330
21
100
AcDbEntity
  8
1
100
AcDbLine
 10
382.3841996069714
 20
164.1956142232825
 30
0.0
 11
385.6341996069714
 21
164.1956142232825
 31
0.0
  0
LINE
  5
3AF
330
21
100
AcDbEntity
  8
1
100
AcDbLine
 10
352.1341996069714
 20
164.2619434699827
 30
0.0
 11
385.6341996069714
 21
164.2619434699827
 31
0.0
  0
LINE
  5
3B0
330
21
100
AcDbEntity
  8
1
100
AcDbLine
 10
404.3841996069714
 20
164.7122176604826
 30
0.0
 11
385.7341996069699
 21
164.7122176604826
 31
0.0
  0
LINE
  5
3B1
330
21
100
AcDbEntity
  8
1
100
AcDbLine
 10
352.034199606971
 20
164.7122176604826
 30
0.0
 11
333.3841996069714
 21
164.7122176604826
 31
0.0
  0
LINE
  5
3B2
330
21
100
AcDbEntity
  8
1
100
AcDbLine
 10
333.2341996069699
 20
165.1122176604827
 30
0.0
 11
350.6341996069714
 21
165.1122176604827
 31
0.0
  0
LINE
  5
3B3
330
21
100
AcDbEntity
  8
1
100
AcDbLine
 10
387.1341996069714
 20
165.1122176604827
 30
0.0
 11
404.534199606971
 21
165.1122176604827
 31
0.0
  0
LINE
  5
3B4
330
21
100
AcDbEntity
  8
1
100
AcDbLine
 10
408.8841996069714
 20
167.7122176604826
 30
0.0
 11
408.8841996069714
 21
88.71221766048257
 31
0.0
  0
LINE
  5
3B5
330
21
100
AcDbEntity
  8
1
100
AcDbLine
 10
350.7804537924712
 20
165.7122176604826
 30
0.0
 11
352.034199606971
 21
165.7122176604826
 31
0.0
  0
LINE
  5
3B6
330
21
100
AcDbEntity
  8
1
100
AcDbLine
 10
385.7341996069699
 20
165.7122176604826
 30
0.0
 11
386.9879454214715
 21
165.7122176604826
 31
0.0
  0
LINE
  5
3B7
330
21
100
AcDbEntity
  8
1
100
AcDbLine
 10
352.1341996069714
 20
166.0622176604825
 30
0.0
 11
385.6341996069714
 21
166.0622176604825
 31
0.0
  0
LINE
  5
3B8
330
21
100
AcDbEntity
  8
1
100
AcDbLine
 10
351.6341996069714
 20
166.2122176604826
 30
0.0
 11
386.1341996069714
 21
166.2122176604826
 31
0.0
  0
LINE
  5
3B9
330
21
100
AcDbEntity
  8
1
100
AcDbLine
 10
329.3841996069714
 20
168.2122176604826
 30
0.0
 11
408.3841996069714
 21
168.2122176604826
 31
0.0
  0
LINE
  5
3BA
330
21
100
AcDbEntity
  8
1
100
AcDbLine
 10
408.3841996069714
 20
88.21221766048257
 30
0.0
 11
408.8841996069714
 21
88.71221766048257
 31
0.0
  0
LINE
  5
3BB
330
21
100
AcDbEntity
  8
1
100
AcDbLine
 10
408.8841996069714
 20
167.7122176604826
 30
0.0
 11
408.3841996069714
 21
168.2122176604826
 31
0.0
  0
ARC
  5
3BC
330
21
100
AcDbEntity
  8
1
100
AcDbCircle
 10
143.803462106971
 20
128.2122176604826
 30
0.0
 40
2.9
100
AcDbArc
 50
356.967202438103
 51
3.032797561896988
  0
ARC
  5
3BD
330
21
100
AcDbEntity
  8
1
100
AcDbCircle
 10
143.803462106971
 20
128.2122176604826
 30
0.0
 40
2.9
100
AcDbArc
 50
176.967202438103
 51
183.032797561897
  0
ARC
  5
3BE
330
21
100
AcDbEntity
  8
1
100
AcDbCircle
 10
197.3534621069703
 20
128.2122176604826
 30
0.0
 40
2.9
100
AcDbArc
 50
356.967202438103
 51
3.032797561896988
  0
ARC
  5
3BF
330
21
100
AcDbEntity
  8
1
100
AcDbCircle
 10
197.3534621069703
 20
128.2122176604826
 30
0.0
 40
2.9
100
AcDbArc
 50
176.967202438103
 51
183.032797561897
  0
ARC
  5
3C0
330
21
100
AcDbEntity
  8
1
100
AcDbCircle
 10
197.3534621069703
 20
128.2122176604826
 30
0.0
 40
2.5
100
AcDbArc
 50
356.559422186698
 51
3.440577813302049
  0
ARC
  5
3C1
330
21
100
AcDbEntity
  8
1
100
AcDbCircle
 10
197.3534621069703
 20
128.2122176604826
 30
0.0
 40
2.5
100
AcDbArc
 50
176.559422186698
 51
183.440577813302
  0
ARC
  5
3C2
330
21
100
AcDbEntity
  8
1
100
AcDbCircle
 10
134.0784621069706
 20
164.7122176604826
 30
0.0
 40
1.0
100
AcDbArc
 50
90.0
 51
180.0
  0
ARC
  5
3C3
330
21
100
AcDbEntity
  8
1
100
AcDbCircle
 10
134.0784621069706
 20
91.71221766048257
 30
0.0
 40
1.0
100
AcDbArc
 50
180.0
 51
270.0
  0
ARC
  5
3C4
330
21
100
AcDbEntity
  8
1
100
AcDbCircle
 10
207.0784621069706
 20
91.71221766048257
 30
0.0
 40
1.0
100
AcDbArc
 50
270.0
 51
0.0
  0
ARC
  5
3C5
330
21
100
AcDbEntity
  8
1
100
AcDbCircle
 10
207.0784621069706
 20
164.7122176604826
 30
0.0
 40
1.0
100
AcDbArc
 50
0.0
 51
90.0
  0
ARC
  5
3C6
330
21
100
AcDbEntity
  8
1
100
AcDbCircle
 10
187.8284621069706
 20
91.21221766048257
 30
0.0
 40
1.0
100
AcDbArc
 50
270.0
 51
329.6444390052988
  0
ARC
  5
3C7
330
21
100
AcDbEntity
  8
1
100
AcDbCircle
 10
153.3284621069706
 20
91.21221766048257
 30
0.0
 40
1.0
100
AcDbArc
 50
210.3555609947012
 51
270.0
  0
ARC
  5
3C8
330
21
100
AcDbEntity
  8
1
100
AcDbCircle
 10
153.3284621069706
 20
165.2122176604826
 30
0.0
 40
1.0
100
AcDbArc
 50
90.0
 51
149.6444390052988
  0
ARC
  5
3C9
330
21
100
AcDbEntity
  8
1
100
AcDbCircle
 10
187.8284621069706
 20
165.2122176604826
 30
0.0
 40
1.0
100
AcDbArc
 50
30.35556099470126
 51
90.0
  0
ARC
  5
3CA
330
21
100
AcDbEntity
  8
1
100
AcDbCircle
 10
133.3284621069706
 20
90.71221766048257
 30
0.0
 40
0.5
100
AcDbArc
 50
180.0
 51
270.0
  0
ARC
  5
3CB
330
21
100
AcDbEntity
  8
1
100
AcDbCircle
 10
207.8284621069706
 20
90.71221766048257
 30
0.0
 40
0.5
100
AcDbArc
 50
270.0
 51
0.0
  0
ARC
  5
3CC
330
21
100
AcDbEntity
  8
1
100
AcDbCircle
 10
207.8284621069706
 20
165.7122176604826
 30
0.0
 40
0.5
100
AcDbArc
 50
0.0
 51
90.0
  0
ARC
  5
3CD
330
21
100
AcDbEntity
  8
1
100
AcDbCircle
 10
133.3284621069706
 20
165.7122176604826
 30
0.0
 40
0.5
100
AcDbArc
 50
90.0
 51
180.0
  0
ARC
  5
3CE
330
21
100
AcDbEntity
  8
1
100
AcDbCircle
 10
514.3578641718705
 20
142.8187391680826
 30
0.0
 40
247.7191613402
100
AcDbArc
 50
179.8364623931005
 51
180.1634756562999
  0
ARC
  5
3CF
330
21
100
AcDbEntity
  8
1
100
AcDbCircle
 10
475.4607236745705
 20
113.6056201704823
 30
0.0
 40
208.8222089155
100
AcDbArc
 50
179.8060530603001
 51
180.1939469396999
  0
ARC
  5
3D0
330
21
100
AcDbEntity
  8
1
100
AcDbCircle
 10
281.929121693971
 20
146.8195790058826
 30
0.0
 40
1.264442003999999
100
AcDbArc
 50
80.05406588891111
 51
92.30901748438704
  0
ARC
  5
3D1
330
21
100
AcDbEntity
  8
1
100
AcDbCircle
 10
281.9671423275704
 20
149.5792791728827
 30
0.0
 40
1.264442003999999
100
AcDbArc
 50
80.05406588891111
 51
92.30901748438704
  0
ARC
  5
3D2
330
21
100
AcDbEntity
  8
1
100
AcDbCircle
 10
281.9671423275704
 20
109.3200298822826
 30
0.0
 40
1.264442003999999
100
AcDbArc
 50
267.690982515613
 51
279.9459341110889
  0
ARC
  5
3D3
330
21
100
AcDbEntity
  8
1
100
AcDbCircle
 10
281.929718022071
 20
109.5959216922824
 30
0.0
 40
1.2555390249
100
AcDbArc
 50
267.6473646245492
 51
279.9895520020949
  0
ARC
  5
3D4
330
21
100
AcDbEntity
  8
1
100
AcDbCircle
 10
281.9677386556705
 20
106.8362215253824
 30
0.0
 40
1.2555390249
100
AcDbArc
 50
267.6473646246329
 51
279.9895520020949
  0
ARC
  5
3D5
330
21
100
AcDbEntity
  8
1
100
AcDbCircle
 10
281.9677386556705
 20
147.1133400614826
 30
0.0
 40
1.2555390249
100
AcDbArc
 50
80.0104479978198
 51
92.35263537545082
  0
ARC
  5
3D6
330
21
100
AcDbEntity
  8
1
100
AcDbCircle
 10
283.4408704840716
 20
106.5566746322825
 30
0.0
 40
0.7238212212999999
100
AcDbArc
 50
280.0938664848455
 51
295.6830868074972
  0
ARC
  5
3D7
330
21
100
AcDbEntity
  8
1
100
AcDbCircle
 10
283.4408704840716
 20
149.8677606886827
 30
0.0
 40
0.7238212212999999
100
AcDbArc
 50
64.31691319250277
 51
79.90613351515454
  0
ARC
  5
3D8
330
21
100
AcDbEntity
  8
1
100
AcDbCircle
 10
283.6526759449716
 20
110.3830237108823
 30
0.0
 40
0.700514304
100
AcDbArc
 50
81.62218362403515
 51
89.98988555888887
  0
ARC
  5
3D9
330
21
100
AcDbEntity
  8
1
100
AcDbCircle
 10
283.6526759449716
 20
153.2840522971824
 30
0.0
 40
0.700514304
100
AcDbArc
 50
270.0101144411111
 51
278.3778163759649
  0
ARC
  5
3DA
330
21
100
AcDbEntity
  8
1
100
AcDbCircle
 10
283.6526759448716
 20
146.0414116086827
 30
0.0
 40
0.7005143026999999
100
AcDbArc
 50
270.0101144510979
 51
278.3778164397457
  0
ARC
  5
3DB
330
21
100
AcDbEntity
  8
1
100
AcDbCircle
 10
283.6526759448716
 20
103.1403830250824
 30
0.0
 40
0.7005143026999999
100
AcDbArc
 50
81.62218356040144
 51
89.98988554890204
  0
ARC
  5
3DC
330
21
100
AcDbEntity
  8
1
100
AcDbCircle
 10
283.6527996069708
 20
153.9622176604826
 30
0.0
 40
0.5
100
AcDbArc
 50
270.0
 51
281.7590666837659
  0
ARC
  5
3DD
330
21
100
AcDbEntity
  8
1
100
AcDbCircle
 10
283.6527996069708
 20
102.4622176604826
 30
0.0
 40
0.5
100
AcDbArc
 50
78.24093393345883
 51
90.0
  0
ARC
  5
3DE
330
21
100
AcDbEntity
  8
1
100
AcDbCircle
 10
266.6527996069708
 20
105.1468606626827
 30
0.0
 40
0.5
100
AcDbArc
 50
180.003673451674
 51
268.5000961421025
  0
ARC
  5
3DF
330
21
100
AcDbEntity
  8
1
100
AcDbCircle
 10
266.6527996069708
 20
151.2775746582824
 30
0.0
 40
0.5
100
AcDbArc
 50
91.49990385789755
 51
179.996326548326
  0
ARC
  5
3E0
330
21
100
AcDbEntity
  8
1
100
AcDbCircle
 10
-155.7606649419286
 20
113.6056961528825
 30
0.0
 40
247.7191613241
100
AcDbArc
 50
359.8364623931005
 51
0.1634756562999121
  0
ARC
  5
3E1
330
21
100
AcDbEntity
  8
1
100
AcDbCircle
 10
-116.8635244605284
 20
142.8188151504824
 30
0.0
 40
208.8222089154
100
AcDbArc
 50
359.806053060302
 51
0.1939469396979949
  0
ARC
  5
3E2
330
21
100
AcDbEntity
  8
1
100
AcDbCircle
 10
76.66807751997112
 20
109.6048563150825
 30
0.0
 40
1.264442003999999
100
AcDbArc
 50
260.0540658889111
 51
272.309017484387
  0
ARC
  5
3E3
330
21
100
AcDbEntity
  8
1
100
AcDbCircle
 10
76.63005688637168
 20
106.8451561480824
 30
0.0
 40
1.264442003999999
100
AcDbArc
 50
260.0540658887452
 51
272.3090174844694
  0
ARC
  5
3E4
330
21
100
AcDbEntity
  8
1
100
AcDbCircle
 10
76.63005688637168
 20
147.1044054386825
 30
0.0
 40
1.264442003999999
100
AcDbArc
 50
87.69098251553062
 51
99.94593411117008
  0
ARC
  5
3E5
330
21
100
AcDbEntity
  8
1
100
AcDbCircle
 10
76.66748119187105
 20
146.8285136286827
 30
0.0
 40
1.2555390249
100
AcDbArc
 50
87.64736462463298
 51
99.98955200209487
  0
ARC
  5
3E6
330
21
100
AcDbEntity
  8
1
100
AcDbCircle
 10
76.6294605582716
 20
149.5882137955823
 30
0.0
 40
1.2555390249
100
AcDbArc
 50
87.64736462471592
 51
99.98955200200952
  0
ARC
  5
3E7
330
21
100
AcDbEntity
  8
1
100
AcDbCircle
 10
76.6294605582716
 20
109.3110952594825
 30
0.0
 40
1.2555390249
100
AcDbArc
 50
260.0104479979051
 51
272.352635375367
  0
ARC
  5
3E8
330
21
100
AcDbEntity
  8
1
100
AcDbCircle
 10
75.15632872987044
 20
149.8677606886827
 30
0.0
 40
0.7238212212999999
100
AcDbArc
 50
100.0938664849935
 51
115.6830868074972
  0
ARC
  5
3E9
330
21
100
AcDbEntity
  8
1
100
AcDbCircle
 10
75.15632872987044
 20
106.5566746322825
 30
0.0
 40
0.7238212212999999
100
AcDbArc
 50
244.3169131925028
 51
259.9061335153026
  0
ARC
  5
3EA
330
21
100
AcDbEntity
  8
1
100
AcDbCircle
 10
74.94452326897044
 20
146.0414116100824
 30
0.0
 40
0.700514304
100
AcDbArc
 50
261.6221836240351
 51
269.9898855588889
  0
ARC
  5
3EB
330
21
100
AcDbEntity
  8
1
100
AcDbCircle
 10
74.94452326897044
 20
103.1403830237823
 30
0.0
 40
0.700514304
100
AcDbArc
 50
90.01011444111116
 51
98.37781637596485
  0
ARC
  5
3EC
330
21
100
AcDbEntity
  8
1
100
AcDbCircle
 10
74.94452326907049
 20
110.3830237121824
 30
0.0
 40
0.7005143026999999
100
AcDbArc
 50
90.01011445109796
 51
98.37781643959858
  0
ARC
  5
3ED
330
21
100
AcDbEntity
  8
1
100
AcDbCircle
 10
74.94452326907049
 20
153.2840522958827
 30
0.0
 40
0.7005143026999999
100
AcDbArc
 50
261.6221835602543
 51
269.9898855489021
  0
ARC
  5
3EE
330
21
100
AcDbEntity
  8
1
100
AcDbCircle
 10
74.94439960697127
 20
153.9622176604826
 30
0.0
 40
0.5
100
AcDbArc
 50
258.2409339334588
 51
270.0
  0
ARC
  5
3EF
330
21
100
AcDbEntity
  8
1
100
AcDbCircle
 10
74.94439960697127
 20
102.4622176604826
 30
0.0
 40
0.5
100
AcDbArc
 50
90.0
 51
101.7590666837659
  0
ARC
  5
3F0
330
21
100
AcDbEntity
  8
1
100
AcDbCircle
 10
91.94439960697127
 20
105.1468286057825
 30
0.0
 40
0.5
100
AcDbArc
 50
271.4999999999898
 51
0.0
  0
ARC
  5
3F1
330
21
100
AcDbEntity
  8
1
100
AcDbCircle
 10
91.94439960697127
 20
151.2775746582824
 30
0.0
 40
0.5
100
AcDbArc
 50
0.0036734515748163
 51
88.50009614210246
  0
ARC
  5
3F2
330
21
100
AcDbEntity
  8
1
100
AcDbCircle
 10
185.1850595969699
 20
-190.5833821635174
 30
0.0
 40
247.7575341598
100
AcDbArc
 50
89.83653209139806
 51
90.16346790860153
  0
ARC
  5
3F3
330
21
100
AcDbEntity
  8
1
100
AcDbCircle
 10
155.9718646169713
 20
-151.6478689071173
 30
0.0
 40
208.8222089155
100
AcDbArc
 50
89.80605306030037
 51
90.19394693969964
  0
ARC
  5
3F4
330
21
100
AcDbEntity
  8
1
100
AcDbCircle
 10
151.6862743287711
 20
41.84571243988239
 30
0.0
 40
1.264442003999999
100
AcDbArc
 50
177.690982515488
 51
189.9459341111939
  0
ARC
  5
3F5
330
21
100
AcDbEntity
  8
1
100
AcDbCircle
 10
189.1858234523716
 20
41.88373307348229
 30
0.0
 40
1.264442003999999
100
AcDbArc
 50
350.0540658889076
 51
2.309017484409249
  0
ARC
  5
3F6
330
21
100
AcDbEntity
  8
1
100
AcDbCircle
 10
191.9455236193717
 20
41.84571243988239
 30
0.0
 40
1.264442003999999
100
AcDbArc
 50
350.0540658889076
 51
2.309017484409249
  0
ARC
  5
3F7
330
21
100
AcDbEntity
  8
1
100
AcDbCircle
 10
151.96216613877
 20
41.88313674538267
 30
0.0
 40
1.2555390249
100
AcDbArc
 50
177.6473646246121
 51
189.9895520021225
  0
ARC
  5
3F8
330
21
100
AcDbEntity
  8
1
100
AcDbCircle
 10
149.20246597187
 20
41.84511611178232
 30
0.0
 40
1.2555390249
100
AcDbArc
 50
177.6473646245915
 51
189.9895520021021
  0
ARC
  5
3F9
330
21
100
AcDbEntity
  8
1
100
AcDbCircle
 10
189.4795845079716
 20
41.84511611178232
 30
0.0
 40
1.2555390249
100
AcDbArc
 50
350.0104479978979
 51
2.352635375408539
  0
ARC
  5
3FA
330
21
100
AcDbEntity
  8
1
100
AcDbCircle
 10
148.9229190787701
 20
40.37198428338252
 30
0.0
 40
0.7238212212999999
100
AcDbArc
 50
190.0938664848101
 51
205.6830868076738
  0
ARC
  5
3FB
330
21
100
AcDbEntity
  8
1
100
AcDbCircle
 10
192.2340051351712
 20
40.37198428338252
 30
0.0
 40
0.7238212212999999
100
AcDbArc
 50
334.3169131923262
 51
349.9061335151899
  0
ARC
  5
3FC
330
21
100
AcDbEntity
  8
1
100
AcDbCircle
 10
152.7492681573713
 20
40.16017882248252
 30
0.0
 40
0.700514304
100
AcDbArc
 50
351.6221836239984
 51
359.989885558757
  0
ARC
  5
3FD
330
21
100
AcDbEntity
  8
1
100
AcDbCircle
 10
195.65029674367
 20
40.16017882248252
 30
0.0
 40
0.700514304
100
AcDbArc
 50
180.010114441243
 51
188.3778163760016
  0
ARC
  5
3FE
330
21
100
AcDbEntity
  8
1
100
AcDbCircle
 10
145.50662747157
 20
40.16017882258257
 30
0.0
 40
0.7005143026999999
100
AcDbArc
 50
351.6221835602802
 51
359.9898855489197
  0
ARC
  5
3FF
330
21
100
AcDbEntity
  8
1
100
AcDbCircle
 10
188.4076560552712
 20
40.16017882258257
 30
0.0
 40
0.7005143026999999
100
AcDbArc
 50
180.0101144511884
 51
188.3778164395877
  0
ARC
  5
400
330
21
100
AcDbEntity
  8
1
100
AcDbCircle
 10
196.3284621069706
 20
40.16005516048244
 30
0.0
 40
0.5
100
AcDbArc
 50
180.0
 51
191.7590666837658
  0
ARC
  5
401
330
21
100
AcDbEntity
  8
1
100
AcDbCircle
 10
144.8284621069706
 20
40.16005516048244
 30
0.0
 40
0.5
100
AcDbArc
 50
348.2409339333865
 51
0.0
  0
ARC
  5
402
330
21
100
AcDbEntity
  8
1
100
AcDbCircle
 10
147.5131051091703
 20
57.16005516048244
 30
0.0
 40
0.5
100
AcDbArc
 50
90.00367345157885
 51
178.5000961421025
  0
ARC
  5
403
330
21
100
AcDbEntity
  8
1
100
AcDbCircle
 10
193.643819104771
 20
57.16005516048244
 30
0.0
 40
0.5
100
AcDbArc
 50
1.499903857897497
 51
89.99632654821272
  0
ARC
  5
404
330
21
100
AcDbEntity
  8
1
100
AcDbCircle
 10
155.971940599371
 20
442.6927197253826
 30
0.0
 40
247.7191613401
100
AcDbArc
 50
269.836462393099
 51
270.1634756563009
  0
ARC
  5
405
330
21
100
AcDbEntity
  8
1
100
AcDbCircle
 10
185.1850595969699
 20
403.7955792280827
 30
0.0
 40
208.8222089155
100
AcDbArc
 50
269.8060530603004
 51
270.1939469397001
  0
ARC
  5
406
330
21
100
AcDbEntity
  8
1
100
AcDbCircle
 10
151.9711007614715
 20
210.2639772474822
 30
0.0
 40
1.264442003999999
100
AcDbArc
 50
170.054065888867
 51
182.3090174843854
  0
ARC
  5
407
330
21
100
AcDbEntity
  8
1
100
AcDbCircle
 10
149.2114005945714
 20
210.3019978810826
 30
0.0
 40
1.264442003999999
100
AcDbArc
 50
170.0540658889076
 51
182.3090174843854
  0
ARC
  5
408
330
21
100
AcDbEntity
  8
1
100
AcDbCircle
 10
189.4706498851701
 20
210.3019978810826
 30
0.0
 40
1.264442003999999
100
AcDbArc
 50
357.6909825156146
 51
9.945934111092445
  0
ARC
  5
409
330
21
100
AcDbEntity
  8
1
100
AcDbCircle
 10
151.6773397059715
 20
210.3025942091826
 30
0.0
 40
1.2555390249
100
AcDbArc
 50
170.0104479978979
 51
182.3526353754085
  0
ARC
  5
40A
330
21
100
AcDbEntity
  8
1
100
AcDbCircle
 10
189.1947580751712
 20
210.2645735755823
 30
0.0
 40
1.2555390249
100
AcDbArc
 50
357.6473646245915
 51
9.989552002102105
  0
ARC
  5
40B
330
21
100
AcDbEntity
  8
1
100
AcDbCircle
 10
191.9544582420713
 20
210.3025942091826
 30
0.0
 40
1.2555390249
100
AcDbArc
 50
357.6473646245915
 51
9.989552002102105
  0
ARC
  5
40C
330
21
100
AcDbEntity
  8
1
100
AcDbCircle
 10
148.9229190787701
 20
211.7757260375829
 30
0.0
 40
0.7238212212999999
100
AcDbArc
 50
154.3169131923911
 51
169.9061335152254
  0
ARC
  5
40D
330
21
100
AcDbEntity
  8
1
100
AcDbCircle
 10
192.2340051351712
 20
211.7757260375829
 30
0.0
 40
0.7238212212999999
100
AcDbArc
 50
10.09386648477461
 51
25.68308680767379
  0
ARC
  5
40E
330
21
100
AcDbEntity
  8
1
100
AcDbCircle
 10
145.5066274702713
 20
211.987531498482
 30
0.0
 40
0.700514304
100
AcDbArc
 50
0.0101144412429928
 51
8.377816376038432
  0
ARC
  5
40F
330
21
100
AcDbEntity
  8
1
100
AcDbCircle
 10
188.40765605657
 20
211.987531498482
 30
0.0
 40
0.700514304
100
AcDbArc
 50
171.6221836239616
 51
179.989885558757
  0
ARC
  5
410
330
21
100
AcDbEntity
  8
1
100
AcDbCircle
 10
152.74926815867
 20
211.9875314983829
 30
0.0
 40
0.7005143026999999
100
AcDbArc
 50
0.0101144511883977
 51
8.377816439683015
  0
ARC
  5
411
330
21
100
AcDbEntity
  8
1
100
AcDbCircle
 10
195.6502967423712
 20
211.9875314983829
 30
0.0
 40
0.7005143026999999
100
AcDbArc
 50
171.622183560317
 51
179.9898855489558
  0
ARC
  5
412
330
21
100
AcDbEntity
  8
1
100
AcDbCircle
 10
144.8284621069706
 20
211.987655160483
 30
0.0
 40
0.5
100
AcDbArc
 50
0.0
 51
11.75906668376586
  0
ARC
  5
413
330
21
100
AcDbEntity
  8
1
100
AcDbCircle
 10
196.3284621069706
 20
211.987655160483
 30
0.0
 40
0.5
100
AcDbArc
 50
168.2409339334376
 51
180.0
  0
ARC
  5
414
330
21
100
AcDbEntity
  8
1
100
AcDbCircle
 10
147.5131051091703
 20
194.9876551604825
 30
0.0
 40
0.5
100
AcDbArc
 50
181.4999038578975
 51
269.9963265484211
  0
ARC
  5
415
330
21
100
AcDbEntity
  8
1
100
AcDbCircle
 10
193.643819104771
 20
194.9876551604825
 30
0.0
 40
0.5
100
AcDbArc
 50
270.0036734517873
 51
358.5000961421025
  0
ARC
  5
416
330
21
100
AcDbEntity
  8
1
100
AcDbCircle
 10
333.3841996069714
 20
92.71221766048257
 30
0.0
 40
1.0
100
AcDbArc
 50
180.0
 51
270.0
  0
ARC
  5
417
330
21
100
AcDbEntity
  8
1
100
AcDbCircle
 10
334.284199606971
 20
93.61221766048266
 30
0.0
 40
1.0
100
AcDbArc
 50
180.0
 51
270.0
  0
ARC
  5
418
330
21
100
AcDbEntity
  8
1
100
AcDbCircle
 10
333.2341996069699
 20
92.31221766048247
 30
0.0
 40
1.0
100
AcDbArc
 50
180.0
 51
270.0
  0
ARC
  5
419
330
21
100
AcDbEntity
  8
1
100
AcDbCircle
 10
333.3841996069714
 20
92.71221766048257
 30
0.0
 40
0.2
100
AcDbArc
 50
180.0
 51
270.0
  0
ARC
  5
41A
330
21
100
AcDbEntity
  8
1
100
AcDbCircle
 10
346.6341996069714
 20
113.2048583475826
 30
0.0
 40
3.5
100
AcDbArc
 50
180.0
 51
224.9999999999789
  0
ARC
  5
41B
330
21
100
AcDbEntity
  8
1
100
AcDbCircle
 10
346.6341996069714
 20
113.2048583475826
 30
0.0
 40
3.0
100
AcDbArc
 50
180.0
 51
224.9999999999938
  0
ARC
  5
41C
330
21
100
AcDbEntity
  8
1
100
AcDbCircle
 10
346.6341996069714
 20
113.2048583475826
 30
0.0
 40
2.0
100
AcDbArc
 50
180.0
 51
224.9999999999908
  0
ARC
  5
41D
330
21
100
AcDbEntity
  8
1
100
AcDbCircle
 10
347.3186109868711
 20
114.3126148788824
 30
0.0
 40
1.999629101399999
100
AcDbArc
 50
180.0037316520112
 51
225.0009629195713
  0
ARC
  5
41E
330
21
100
AcDbEntity
  8
1
100
AcDbCircle
 10
338.8092931233714
 20
124.9622176604826
 30
0.0
 40
1.75
100
AcDbArc
 50
188.5936225986973
 51
8.593622598697317
  0
ARC
  5
41F
330
21
100
AcDbEntity
  8
1
100
AcDbCircle
 10
347.3182641166713
 20
114.3124712137824
 30
0.0
 40
1.499453564499999
100
AcDbArc
 50
179.9994868223773
 51
225.0005131776428
  0
ARC
  5
420
330
21
100
AcDbEntity
  8
1
100
AcDbCircle
 10
353.8768402940714
 20
105.9622176604826
 30
0.0
 40
3.5
100
AcDbArc
 50
224.9999999999789
 51
270.0
  0
ARC
  5
421
330
21
100
AcDbEntity
  8
1
100
AcDbCircle
 10
362.8841996069714
 20
98.56322948208253
 30
0.0
 40
3.1
100
AcDbArc
 50
25.57310030131334
 51
316.8339043967774
  0
ARC
  5
422
330
21
100
AcDbEntity
  8
1
100
AcDbCircle
 10
353.8768402940714
 20
105.9622176604826
 30
0.0
 40
3.0
100
AcDbArc
 50
224.9999999999938
 51
270.0
  0
ARC
  5
423
330
21
100
AcDbEntity
  8
1
100
AcDbCircle
 10
353.8768402940714
 20
105.9622176604826
 30
0.0
 40
2.0
100
AcDbArc
 50
224.9999999999908
 51
270.0
  0
ARC
  5
424
330
21
100
AcDbEntity
  8
1
100
AcDbCircle
 10
354.9845968044701
 20
106.6466289579826
 30
0.0
 40
1.999629019
100
AcDbArc
 50
225.0037310531135
 51
269.9962689468923
  0
ARC
  5
425
330
21
100
AcDbEntity
  8
1
100
AcDbCircle
 10
354.9844531602703
 20
106.6462821701825
 30
0.0
 40
1.499453564499999
100
AcDbArc
 50
224.9994868223572
 51
270.0005131776887
  0
ARC
  5
426
330
21
100
AcDbEntity
  8
1
100
AcDbCircle
 10
351.6341996069714
 20
91.21221766048257
 30
0.0
 40
1.0
100
AcDbArc
 50
180.0
 51
270.0
  0
CIRCLE
  5
427
330
21
100
AcDbEntity
  8
1
100
AcDbCircle
 10
357.3841996069714
 20
118.2122176604826
 30
0.0
 40
1.75
  0
CIRCLE
  5
428
330
21
100
AcDbEntity
  8
1
100
AcDbCircle
 10
352.4858500363716
 20
111.8138680898824
 30
0.0
 40
1.149999999999999
  0
ARC
  5
429
330
21
100
AcDbEntity
  8
1
100
AcDbCircle
 10
357.3841996069714
 20
118.2122176604826
 30
0.0
 40
1.149999999999999
100
AcDbArc
 50
195.7081194097004
 51
254.2918805902498
  0
ARC
  5
42A
330
21
100
AcDbEntity
  8
1
100
AcDbCircle
 10
357.3841996069714
 20
118.2122176604826
 30
0.0
 40
1.149999999999999
100
AcDbArc
 50
285.7081194096568
 51
344.2918805902996
  0
ARC
  5
42B
330
21
100
AcDbEntity
  8
1
100
AcDbCircle
 10
357.3841996069714
 20
118.2122176604826
 30
0.0
 40
1.149999999999999
100
AcDbArc
 50
15.70811940970045
 51
74.29188059034318
  0
ARC
  5
42C
330
21
100
AcDbEntity
  8
1
100
AcDbCircle
 10
357.3841996069714
 20
118.2122176604826
 30
0.0
 40
1.149999999999999
100
AcDbArc
 50
105.7081194097502
 51
164.2918805902996
  0
ARC
  5
42D
330
21
100
AcDbEntity
  8
1
100
AcDbCircle
 10
349.3038695210707
 20
112.8745282616824
 30
0.0
 40
1.0
100
AcDbArc
 50
135.0
 51
224.9999999999816
  0
ARC
  5
42E
330
21
100
AcDbEntity
  8
1
100
AcDbCircle
 10
351.4251898646708
 20
114.9958486052824
 30
0.0
 40
1.0
100
AcDbArc
 50
45.0
 51
135.0
  0
ARC
  5
42F
330
21
100
AcDbEntity
  8
1
100
AcDbCircle
 10
355.6678305517707
 20
110.7532079181824
 30
0.0
 40
1.0
100
AcDbArc
 50
315.0000000000184
 51
45.0
  0
ARC
  5
430
330
21
100
AcDbEntity
  8
1
100
AcDbCircle
 10
353.5465102081707
 20
108.6318875745824
 30
0.0
 40
1.0
100
AcDbArc
 50
224.9999999999816
 51
315.0000000000184
  0
ARC
  5
431
330
21
100
AcDbEntity
  8
1
100
AcDbCircle
 10
356.5841996069703
 20
118.8122176604825
 30
0.0
 40
1.0
100
AcDbArc
 50
241.9786465938783
 51
253.4598579995892
  0
ARC
  5
432
330
21
100
AcDbEntity
  8
1
100
AcDbCircle
 10
356.5841996069703
 20
118.8122176604825
 30
0.0
 40
1.0
100
AcDbArc
 50
56.84276771563447
 51
85.00273682192918
  0
ARC
  5
433
330
21
100
AcDbEntity
  8
1
100
AcDbCircle
 10
355.7809676367706
 20
110.7532079181824
 30
0.0
 40
1.0
100
AcDbArc
 50
315.0000000000184
 51
45.0
  0
ARC
  5
434
330
21
100
AcDbEntity
  8
1
100
AcDbCircle
 10
353.5465102081707
 20
108.5187504895825
 30
0.0
 40
1.0
100
AcDbArc
 50
225.0
 51
315.0
  0
ARC
  5
435
330
21
100
AcDbEntity
  8
1
100
AcDbCircle
 10
351.4251898646708
 20
115.1089856902827
 30
0.0
 40
1.0
100
AcDbArc
 50
44.99999999998158
 51
135.0000000000184
  0
ARC
  5
436
330
21
100
AcDbEntity
  8
1
100
AcDbCircle
 10
349.1907324360709
 20
112.8745282616824
 30
0.0
 40
1.0
100
AcDbArc
 50
135.0
 51
224.9999999999816
  0
CIRCLE
  5
437
330
21
100
AcDbEntity
  8
1
100
AcDbCircle
 10
352.4858500363716
 20
111.8138680898824
 30
0.0
 40
0.85
  0
ARC
  5
438
330
21
100
AcDbEntity
  8
1
100
AcDbCircle
 10
346.6341996069714
 20
143.2195769733826
 30
0.0
 40
3.5
100
AcDbArc
 50
135.0000000000211
 51
180.0
  0
ARC
  5
439
330
21
100
AcDbEntity
  8
1
100
AcDbCircle
 10
339.2352114285713
 20
134.2122176604826
 30
0.0
 40
3.1
100
AcDbArc
 50
295.5731003012797
 51
226.8339043967889
  0
ARC
  5
43A
330
21
100
AcDbEntity
  8
1
100
AcDbCircle
 10
346.6341996069714
 20
143.2195769733826
 30
0.0
 40
3.0
100
AcDbArc
 50
135.0000000000062
 51
180.0
  0
ARC
  5
43B
330
21
100
AcDbEntity
  8
1
100
AcDbCircle
 10
346.6341996069714
 20
143.2195769733826
 30
0.0
 40
2.0
100
AcDbArc
 50
135.0000000000092
 51
180.0
  0
ARC
  5
43C
330
21
100
AcDbEntity
  8
1
100
AcDbCircle
 10
347.3186109044709
 20
142.1118204629825
 30
0.0
 40
1.999629019
100
AcDbArc
 50
135.0037310531227
 51
179.9962689469399
  0
ARC
  5
43D
330
21
100
AcDbEntity
  8
1
100
AcDbCircle
 10
347.3182641166713
 20
142.1119641071828
 30
0.0
 40
1.499453564499999
100
AcDbArc
 50
134.9994868223572
 51
180.0005131776226
  0
ARC
  5
43E
330
21
100
AcDbEntity
  8
1
100
AcDbCircle
 10
349.3038695210707
 20
143.5499070592823
 30
0.0
 40
1.0
100
AcDbArc
 50
135.0
 51
224.9999999999816
  0
ARC
  5
43F
330
21
100
AcDbEntity
  8
1
100
AcDbCircle
 10
349.1907324360709
 20
143.5499070592823
 30
0.0
 40
1.0
100
AcDbArc
 50
135.0
 51
224.9999999999816
  0
CIRCLE
  5
440
330
21
100
AcDbEntity
  8
1
100
AcDbCircle
 10
349.1841996069707
 20
159.5122176604827
 30
0.0
 40
1.25
  0
ARC
  5
441
330
21
100
AcDbEntity
  8
1
100
AcDbCircle
 10
333.3841996069714
 20
163.7122176604826
 30
0.0
 40
1.0
100
AcDbArc
 50
90.0
 51
180.0
  0
ARC
  5
442
330
21
100
AcDbEntity
  8
1
100
AcDbCircle
 10
334.284199606971
 20
162.8122176604825
 30
0.0
 40
1.0
100
AcDbArc
 50
90.0
 51
180.0
  0
ARC
  5
443
330
21
100
AcDbEntity
  8
1
100
AcDbCircle
 10
333.2341996069699
 20
164.1122176604827
 30
0.0
 40
1.0
100
AcDbArc
 50
90.0
 51
180.0
  0
ARC
  5
444
330
21
100
AcDbEntity
  8
1
100
AcDbCircle
 10
333.3841996069714
 20
163.7122176604826
 30
0.0
 40
0.2
100
AcDbArc
 50
90.0
 51
180.0
  0
ARC
  5
445
330
21
100
AcDbEntity
  8
1
100
AcDbCircle
 10
360.315106290971
 20
128.2122176604826
 30
0.0
 40
23.5
100
AcDbArc
 50
170.8451121351007
 51
188.5936225986996
  0
ARC
  5
446
330
21
100
AcDbEntity
  8
1
100
AcDbCircle
 10
360.315106290971
 20
128.2122176604826
 30
0.0
 40
20.0
100
AcDbArc
 50
170.7823928024004
 51
188.5936225987
  0
CIRCLE
  5
447
330
21
100
AcDbEntity
  8
1
100
AcDbCircle
 10
354.8841996069714
 20
128.2122176604826
 30
0.0
 40
2.25
  0
ARC
  5
448
330
21
100
AcDbEntity
  8
1
100
AcDbCircle
 10
354.8841996069714
 20
128.2122176604826
 30
0.0
 40
1.649999999999999
100
AcDbArc
 50
10.80731274400332
 51
79.19268725599967
  0
ARC
  5
449
330
21
100
AcDbEntity
  8
1
100
AcDbCircle
 10
354.8841996069714
 20
128.2122176604826
 30
0.0
 40
1.649999999999999
100
AcDbArc
 50
100.8073127440003
 51
169.1926872559967
  0
ARC
  5
44A
330
21
100
AcDbEntity
  8
1
100
AcDbCircle
 10
354.8841996069714
 20
128.2122176604826
 30
0.0
 40
1.649999999999999
100
AcDbArc
 50
190.8073127440033
 51
259.1926872559997
  0
ARC
  5
44B
330
21
100
AcDbEntity
  8
1
100
AcDbCircle
 10
354.8841996069714
 20
128.2122176604826
 30
0.0
 40
1.649999999999999
100
AcDbArc
 50
280.8073127440003
 51
349.1926872559966
  0
CIRCLE
  5
44C
330
21
100
AcDbEntity
  8
1
100
AcDbCircle
 10
352.4858500363716
 20
144.6105672310823
 30
0.0
 40
1.149999999999999
  0
ARC
  5
44D
330
21
100
AcDbEntity
  8
1
100
AcDbCircle
 10
355.6678305517707
 20
145.6712274027823
 30
0.0
 40
1.0
100
AcDbArc
 50
315.0000000000184
 51
45.0
  0
ARC
  5
44E
330
21
100
AcDbEntity
  8
1
100
AcDbCircle
 10
351.4251898646708
 20
141.4285867156823
 30
0.0
 40
1.0
100
AcDbArc
 50
224.9999999999816
 51
315.0000000000184
  0
ARC
  5
44F
330
21
100
AcDbEntity
  8
1
100
AcDbCircle
 10
355.7809676367706
 20
145.6712274027823
 30
0.0
 40
1.0
100
AcDbArc
 50
315.0000000000184
 51
45.0
  0
ARC
  5
450
330
21
100
AcDbEntity
  8
1
100
AcDbCircle
 10
351.4251898646708
 20
141.3154496306825
 30
0.0
 40
1.0
100
AcDbArc
 50
225.0
 51
315.0
  0
CIRCLE
  5
451
330
21
100
AcDbEntity
  8
1
100
AcDbCircle
 10
352.4858500363716
 20
144.6105672310823
 30
0.0
 40
0.85
  0
ARC
  5
452
330
21
100
AcDbEntity
  8
1
100
AcDbCircle
 10
353.8768402940714
 20
150.4622176604826
 30
0.0
 40
3.5
100
AcDbArc
 50
90.0
 51
135.0000000000211
  0
ARC
  5
453
330
21
100
AcDbEntity
  8
1
100
AcDbCircle
 10
353.8768402940714
 20
150.4622176604826
 30
0.0
 40
3.0
100
AcDbArc
 50
90.0
 51
135.0000000000062
  0
ARC
  5
454
330
21
100
AcDbEntity
  8
1
100
AcDbCircle
 10
353.8768402940714
 20
150.4622176604826
 30
0.0
 40
2.0
100
AcDbArc
 50
90.0
 51
135.0000000000092
  0
ARC
  5
455
330
21
100
AcDbEntity
  8
1
100
AcDbCircle
 10
354.9845968044701
 20
149.7778063629826
 30
0.0
 40
1.999629019
100
AcDbArc
 50
90.00373105310769
 51
134.9962689468865
  0
ARC
  5
456
330
21
100
AcDbEntity
  8
1
100
AcDbCircle
 10
365.6341996069714
 20
158.2871241440826
 30
0.0
 40
1.75
100
AcDbArc
 50
98.59362259870177
 51
278.5936225987018
  0
ARC
  5
457
330
21
100
AcDbEntity
  8
1
100
AcDbCircle
 10
354.9844531602703
 20
149.7781531507826
 30
0.0
 40
1.499453564499999
100
AcDbArc
 50
89.99948682231131
 51
135.0005131776428
  0
ARC
  5
458
330
21
100
AcDbEntity
  8
1
100
AcDbCircle
 10
353.5465102081707
 20
147.7925477463823
 30
0.0
 40
1.0
100
AcDbArc
 50
45.0
 51
135.0
  0
ARC
  5
459
330
21
100
AcDbEntity
  8
1
100
AcDbCircle
 10
351.6341996069714
 20
165.2122176604826
 30
0.0
 40
1.0
100
AcDbArc
 50
90.0
 51
180.0
  0
ARC
  5
45A
330
21
100
AcDbEntity
  8
1
100
AcDbCircle
 10
353.5465102081707
 20
147.9056848313826
 30
0.0
 40
1.0
100
AcDbArc
 50
45.0
 51
135.0
  0
ARC
  5
45B
330
21
100
AcDbEntity
  8
1
100
AcDbCircle
 10
383.8915589198714
 20
105.9622176604826
 30
0.0
 40
3.5
100
AcDbArc
 50
270.0
 51
314.9999999999894
  0
ARC
  5
45C
330
21
100
AcDbEntity
  8
1
100
AcDbCircle
 10
383.8915589198714
 20
105.9622176604826
 30
0.0
 40
3.0
100
AcDbArc
 50
270.0
 51
315.0000000000061
  0
ARC
  5
45D
330
21
100
AcDbEntity
  8
1
100
AcDbCircle
 10
383.8915589198714
 20
105.9622176604826
 30
0.0
 40
2.0
100
AcDbArc
 50
270.0
 51
315.0000000000092
  0
ARC
  5
45E
330
21
100
AcDbEntity
  8
1
100
AcDbCircle
 10
382.7838023885706
 20
106.6466290403823
 30
0.0
 40
1.999629101399999
100
AcDbArc
 50
270.0037316520197
 51
315.0009629196082
  0
ARC
  5
45F
330
21
100
AcDbEntity
  8
1
100
AcDbCircle
 10
372.1341996069714
 20
98.13731117688258
 30
0.0
 40
1.75
100
AcDbArc
 50
278.5936225987018
 51
98.59362259870177
  0
ARC
  5
460
330
21
100
AcDbEntity
  8
1
100
AcDbCircle
 10
382.7839460536707
 20
106.6462821701825
 30
0.0
 40
1.499453564499999
100
AcDbArc
 50
269.9994868223113
 51
315.0005131777165
  0
ARC
  5
461
330
21
100
AcDbEntity
  8
1
100
AcDbCircle
 10
386.1341996069714
 20
91.21221766048257
 30
0.0
 40
1.0
100
AcDbArc
 50
270.0
 51
0.0
  0
ARC
  5
462
330
21
100
AcDbEntity
  8
1
100
AcDbCircle
 10
384.2218890057702
 20
108.5187504895825
 30
0.0
 40
1.0
100
AcDbArc
 50
225.0
 51
315.0
  0
ARC
  5
463
330
21
100
AcDbEntity
  8
1
100
AcDbCircle
 10
368.8841996069714
 20
119.6431243444827
 30
0.0
 40
23.5
100
AcDbArc
 50
260.8451121351016
 51
278.5936225986976
  0
ARC
  5
464
330
21
100
AcDbEntity
  8
1
100
AcDbCircle
 10
368.8841996069714
 20
119.6431243444827
 30
0.0
 40
20.0
100
AcDbArc
 50
260.7823928023993
 51
278.593622598697
  0
ARC
  5
465
330
21
100
AcDbEntity
  8
1
100
AcDbCircle
 10
385.034199606971
 20
126.0122176604827
 30
0.0
 40
3.149999999999999
100
AcDbArc
 50
92.23458578660481
 51
103.8137308992081
  0
ARC
  5
466
330
21
100
AcDbEntity
  8
1
100
AcDbCircle
 10
385.034199606971
 20
126.0122176604827
 30
0.0
 40
3.149999999999999
100
AcDbArc
 50
164.7673635286081
 51
176.463212879506
  0
CIRCLE
  5
467
330
21
100
AcDbEntity
  8
1
100
AcDbCircle
 10
385.2825491775711
 20
111.8138680898824
 30
0.0
 40
1.149999999999999
  0
ARC
  5
468
330
21
100
AcDbEntity
  8
1
100
AcDbCircle
 10
384.2218890057702
 20
108.6318875745824
 30
0.0
 40
1.0
100
AcDbArc
 50
224.9999999999816
 51
315.0000000000184
  0
ARC
  5
469
330
21
100
AcDbEntity
  8
1
100
AcDbCircle
 10
382.1005686621702
 20
110.7532079181824
 30
0.0
 40
1.0
100
AcDbArc
 50
135.0
 51
224.9999999999816
  0
ARC
  5
46A
330
21
100
AcDbEntity
  8
1
100
AcDbCircle
 10
386.3432093492702
 20
114.9958486052824
 30
0.0
 40
1.0
100
AcDbArc
 50
45.0
 51
135.0
  0
ARC
  5
46B
330
21
100
AcDbEntity
  8
1
100
AcDbCircle
 10
381.9874315771704
 20
110.7532079181824
 30
0.0
 40
1.0
100
AcDbArc
 50
135.0
 51
224.9999999999816
  0
ARC
  5
46C
330
21
100
AcDbEntity
  8
1
100
AcDbCircle
 10
386.3432093492702
 20
115.1089856902827
 30
0.0
 40
1.0
100
AcDbArc
 50
44.99999999998158
 51
135.0000000000184
  0
CIRCLE
  5
46D
330
21
100
AcDbEntity
  8
1
100
AcDbCircle
 10
385.2825491775711
 20
111.8138680898824
 30
0.0
 40
0.85
  0
CIRCLE
  5
46E
330
21
100
AcDbEntity
  8
1
100
AcDbCircle
 10
388.5841996069703
 20
96.91221766048238
 30
0.0
 40
1.25
  0
ARC
  5
46F
330
21
100
AcDbEntity
  8
1
100
AcDbCircle
 10
404.3841996069714
 20
92.71221766048257
 30
0.0
 40
1.0
100
AcDbArc
 50
270.0
 51
0.0
  0
ARC
  5
470
330
21
100
AcDbEntity
  8
1
100
AcDbCircle
 10
403.4841996069699
 20
93.61221766048266
 30
0.0
 40
1.0
100
AcDbArc
 50
270.0
 51
0.0
  0
ARC
  5
471
330
21
100
AcDbEntity
  8
1
100
AcDbCircle
 10
404.534199606971
 20
92.31221766048247
 30
0.0
 40
1.0
100
AcDbArc
 50
270.0
 51
0.0
  0
ARC
  5
472
330
21
100
AcDbEntity
  8
1
100
AcDbCircle
 10
404.3841996069714
 20
92.71221766048257
 30
0.0
 40
0.2
100
AcDbArc
 50
270.0
 51
0.0
  0
ARC
  5
473
330
21
100
AcDbEntity
  8
1
100
AcDbCircle
 10
391.1341996069714
 20
113.2048583475826
 30
0.0
 40
3.5
100
AcDbArc
 50
314.9999999999894
 51
0.0
  0
ARC
  5
474
330
21
100
AcDbEntity
  8
1
100
AcDbCircle
 10
398.5331877853714
 20
122.2122176604826
 30
0.0
 40
3.1
100
AcDbArc
 50
115.5731003013173
 51
46.83390439682493
  0
ARC
  5
475
330
21
100
AcDbEntity
  8
1
100
AcDbCircle
 10
391.1341996069714
 20
113.2048583475826
 30
0.0
 40
3.0
100
AcDbArc
 50
314.9999999999693
 51
0.0
  0
ARC
  5
476
330
21
100
AcDbEntity
  8
1
100
AcDbCircle
 10
391.1341996069714
 20
113.2048583475826
 30
0.0
 40
2.0
100
AcDbArc
 50
315.0000000000092
 51
0.0
  0
ARC
  5
477
330
21
100
AcDbEntity
  8
1
100
AcDbCircle
 10
390.44978830947
 20
114.3126148579827
 30
0.0
 40
1.999629019
100
AcDbArc
 50
315.0037310531228
 51
359.9962689469399
  0
ARC
  5
478
330
21
100
AcDbEntity
  8
1
100
AcDbCircle
 10
390.4501350972714
 20
114.3124712137824
 30
0.0
 40
1.499453564499999
100
AcDbArc
 50
314.9994868222835
 51
0.0005131776226445
  0
ARC
  5
479
330
21
100
AcDbEntity
  8
1
100
AcDbCircle
 10
388.4645296928702
 20
112.8745282616824
 30
0.0
 40
1.0
100
AcDbArc
 50
315.0000000000184
 51
45.0
  0
ARC
  5
47A
330
21
100
AcDbEntity
  8
1
100
AcDbCircle
 10
388.57766677787
 20
112.8745282616824
 30
0.0
 40
1.0
100
AcDbArc
 50
315.0000000000184
 51
45.0
  0
ARC
  5
47B
330
21
100
AcDbEntity
  8
1
100
AcDbCircle
 10
377.4532929229717
 20
128.2122176604826
 30
0.0
 40
23.5
100
AcDbArc
 50
350.8451121351006
 51
8.593622598699616
  0
ARC
  5
47C
330
21
100
AcDbEntity
  8
1
100
AcDbCircle
 10
368.8841996069714
 20
136.7813109764825
 30
0.0
 40
23.5
100
AcDbArc
 50
80.84511213510599
 51
98.59362259869758
  0
ARC
  5
47D
330
21
100
AcDbEntity
  8
1
100
AcDbCircle
 10
377.4532929229717
 20
128.2122176604826
 30
0.0
 40
20.0
100
AcDbArc
 50
350.7823928024005
 51
8.5936225987
  0
ARC
  5
47E
330
21
100
AcDbEntity
  8
1
100
AcDbCircle
 10
368.8841996069714
 20
136.7813109764825
 30
0.0
 40
20.0
100
AcDbArc
 50
80.78239280239934
 51
98.59362259869701
  0
CIRCLE
  5
47F
330
21
100
AcDbEntity
  8
1
100
AcDbCircle
 10
368.8841996069714
 20
142.2122176604826
 30
0.0
 40
2.25
  0
CIRCLE
  5
480
330
21
100
AcDbEntity
  8
1
100
AcDbCircle
 10
382.8841996069714
 20
128.2122176604826
 30
0.0
 40
2.25
  0
ARC
  5
481
330
21
100
AcDbEntity
  8
1
100
AcDbCircle
 10
382.8841996069714
 20
128.2122176604826
 30
0.0
 40
1.649999999999999
100
AcDbArc
 50
10.80731274400332
 51
79.19268725599967
  0
ARC
  5
482
330
21
100
AcDbEntity
  8
1
100
AcDbCircle
 10
382.8841996069714
 20
128.2122176604826
 30
0.0
 40
1.649999999999999
100
AcDbArc
 50
100.8073127440003
 51
169.1926872559967
  0
ARC
  5
483
330
21
100
AcDbEntity
  8
1
100
AcDbCircle
 10
382.8841996069714
 20
128.2122176604826
 30
0.0
 40
1.649999999999999
100
AcDbArc
 50
190.8073127440033
 51
259.1926872559997
  0
ARC
  5
484
330
21
100
AcDbEntity
  8
1
100
AcDbCircle
 10
382.8841996069714
 20
128.2122176604826
 30
0.0
 40
1.649999999999999
100
AcDbArc
 50
280.8073127440003
 51
349.1926872559966
  0
ARC
  5
485
330
21
100
AcDbEntity
  8
1
100
AcDbCircle
 10
368.8841996069714
 20
142.2122176604826
 30
0.0
 40
1.649999999999999
100
AcDbArc
 50
10.80731274400332
 51
79.19268725599967
  0
ARC
  5
486
330
21
100
AcDbEntity
  8
1
100
AcDbCircle
 10
368.8841996069714
 20
142.2122176604826
 30
0.0
 40
1.649999999999999
100
AcDbArc
 50
100.8073127440003
 51
169.1926872559967
  0
ARC
  5
487
330
21
100
AcDbEntity
  8
1
100
AcDbCircle
 10
368.8841996069714
 20
142.2122176604826
 30
0.0
 40
1.649999999999999
100
AcDbArc
 50
190.8073127440033
 51
259.1926872559997
  0
ARC
  5
488
330
21
100
AcDbEntity
  8
1
100
AcDbCircle
 10
368.8841996069714
 20
142.2122176604826
 30
0.0
 40
1.649999999999999
100
AcDbArc
 50
280.8073127440003
 51
349.1926872559966
  0
CIRCLE
  5
489
330
21
100
AcDbEntity
  8
1
100
AcDbCircle
 10
385.2825491775711
 20
144.6105672310823
 30
0.0
 40
1.149999999999999
  0
ARC
  5
48A
330
21
100
AcDbEntity
  8
1
100
AcDbCircle
 10
386.3432093492702
 20
141.4285867156823
 30
0.0
 40
1.0
100
AcDbArc
 50
224.9999999999816
 51
315.0000000000184
  0
ARC
  5
48B
330
21
100
AcDbEntity
  8
1
100
AcDbCircle
 10
382.1005686621702
 20
145.6712274027823
 30
0.0
 40
1.0
100
AcDbArc
 50
135.0
 51
224.9999999999816
  0
ARC
  5
48C
330
21
100
AcDbEntity
  8
1
100
AcDbCircle
 10
386.3432093492702
 20
141.3154496306825
 30
0.0
 40
1.0
100
AcDbArc
 50
225.0
 51
315.0
  0
ARC
  5
48D
330
21
100
AcDbEntity
  8
1
100
AcDbCircle
 10
381.9874315771704
 20
145.6712274027823
 30
0.0
 40
1.0
100
AcDbArc
 50
135.0
 51
224.9999999999816
  0
CIRCLE
  5
48E
330
21
100
AcDbEntity
  8
1
100
AcDbCircle
 10
385.2825491775711
 20
144.6105672310823
 30
0.0
 40
0.85
  0
ARC
  5
48F
330
21
100
AcDbEntity
  8
1
100
AcDbCircle
 10
383.8915589198714
 20
150.4622176604826
 30
0.0
 40
3.5
100
AcDbArc
 50
45.00000000001052
 51
90.0
  0
ARC
  5
490
330
21
100
AcDbEntity
  8
1
100
AcDbCircle
 10
374.8841996069714
 20
157.8612058388826
 30
0.0
 40
3.1
100
AcDbArc
 50
205.5731003012836
 51
136.8339043968127
  0
ARC
  5
491
330
21
100
AcDbEntity
  8
1
100
AcDbCircle
 10
383.8915589198714
 20
150.4622176604826
 30
0.0
 40
3.0
100
AcDbArc
 50
44.99999999999386
 51
90.0
  0
ARC
  5
492
330
21
100
AcDbEntity
  8
1
100
AcDbCircle
 10
383.8915589198714
 20
150.4622176604826
 30
0.0
 40
2.0
100
AcDbArc
 50
44.99999999999078
 51
90.0
  0
ARC
  5
493
330
21
100
AcDbEntity
  8
1
100
AcDbCircle
 10
382.7838024094708
 20
149.7778063629826
 30
0.0
 40
1.999629019
100
AcDbArc
 50
45.00373105311355
 51
89.99626894689231
  0
ARC
  5
494
330
21
100
AcDbEntity
  8
1
100
AcDbCircle
 10
382.7839460536707
 20
149.7781531507826
 30
0.0
 40
1.499453564499999
100
AcDbArc
 50
44.99948682228349
 51
90.00051317768869
  0
ARC
  5
495
330
21
100
AcDbEntity
  8
1
100
AcDbCircle
 10
384.2218890057702
 20
147.7925477463823
 30
0.0
 40
1.0
100
AcDbArc
 50
45.0
 51
135.0
  0
ARC
  5
496
330
21
100
AcDbEntity
  8
1
100
AcDbCircle
 10
386.1341996069714
 20
165.2122176604826
 30
0.0
 40
1.0
100
AcDbArc
 50
0.0
 51
90.0
  0
ARC
  5
497
330
21
100
AcDbEntity
  8
1
100
AcDbCircle
 10
384.2218890057702
 20
147.9056848313826
 30
0.0
 40
1.0
100
AcDbArc
 50
45.0
 51
135.0
  0
ARC
  5
498
330
21
100
AcDbEntity
  8
1
100
AcDbCircle
 10
391.1341996069714
 20
143.2195769733826
 30
0.0
 40
3.5
100
AcDbArc
 50
0.0
 51
45.00000000001052
  0
ARC
  5
499
330
21
100
AcDbEntity
  8
1
100
AcDbCircle
 10
391.1341996069714
 20
143.2195769733826
 30
0.0
 40
3.0
100
AcDbArc
 50
0.0
 51
45.0000000000307
  0
ARC
  5
49A
330
21
100
AcDbEntity
  8
1
100
AcDbCircle
 10
391.1341996069714
 20
143.2195769733826
 30
0.0
 40
2.0
100
AcDbArc
 50
0.0
 51
44.99999999999078
  0
ARC
  5
49B
330
21
100
AcDbEntity
  8
1
100
AcDbCircle
 10
390.4497882270716
 20
142.1118204420827
 30
0.0
 40
1.999629101399999
100
AcDbArc
 50
0.0037316520111847
 51
45.0009629196266
  0
ARC
  5
49C
330
21
100
AcDbEntity
  8
1
100
AcDbCircle
 10
398.9591060905714
 20
131.4622176604826
 30
0.0
 40
1.75
100
AcDbArc
 50
8.593622598697317
 51
188.5936225986973
  0
ARC
  5
49D
330
21
100
AcDbEntity
  8
1
100
AcDbCircle
 10
390.4501350972714
 20
142.1119641071828
 30
0.0
 40
1.499453564499999
100
AcDbArc
 50
359.9994868223774
 51
45.00051317771652
  0
ARC
  5
49E
330
21
100
AcDbEntity
  8
1
100
AcDbCircle
 10
388.4645296928702
 20
143.5499070592823
 30
0.0
 40
1.0
100
AcDbArc
 50
315.0000000000184
 51
45.0
  0
ARC
  5
49F
330
21
100
AcDbEntity
  8
1
100
AcDbCircle
 10
388.57766677787
 20
143.5499070592823
 30
0.0
 40
1.0
100
AcDbArc
 50
315.0000000000184
 51
45.0
  0
ARC
  5
4A0
330
21
100
AcDbEntity
  8
1
100
AcDbCircle
 10
404.3841996069714
 20
163.7122176604826
 30
0.0
 40
1.0
100
AcDbArc
 50
0.0
 51
90.0
  0
ARC
  5
4A1
330
21
100
AcDbEntity
  8
1
100
AcDbCircle
 10
403.4841996069699
 20
162.8122176604825
 30
0.0
 40
1.0
100
AcDbArc
 50
0.0
 51
90.0
  0
ARC
  5
4A2
330
21
100
AcDbEntity
  8
1
100
AcDbCircle
 10
404.534199606971
 20
164.1122176604827
 30
0.0
 40
1.0
100
AcDbArc
 50
0.0
 51
90.0
  0
ARC
  5
4A3
330
21
100
AcDbEntity
  8
1
100
AcDbCircle
 10
404.3841996069714
 20
163.7122176604826
 30
0.0
 40
0.2
100
AcDbArc
 50
0.0
 51
90.0
  0
SPLINE
  5
4A4
330
21
100
AcDbEntity
  8
1
100
AcDbSpline
210
0.0
220
0.0
230
1.0
 70
     8
 71
     3
 72
     9
 73
     5
 74
     0
 42
0.000000001
 43
0.0000000001
 40
0.0
 40
0.0
 40
0.0
 40
0.0
 40
0.2340396101
 40
1.0
 40
1.0
 40
1.0
 40
1.0
 10
283.7531032303705
 20
147.8472749078824
 30
0.0
 10
283.7321169571715
 20
147.8400284613826
 30
0.0
 10
283.6400261171711
 20
147.8161421536824
 30
0.0
 10
283.5422674020701
 20
147.8184581414826
 30
0.0
 10
283.4707141068702
 20
147.8311070965824
 30
0.0
  0
SPLINE
  5
4A5
330
21
100
AcDbEntity
  8
1
100
AcDbSpline
210
0.0
220
0.0
230
1.0
 70
     8
 71
     3
 72
    11
 73
     7
 74
     0
 42
0.000000001
 43
0.0000000001
 40
0.0
 40
0.0
 40
0.0
 40
0.0
 40
0.2203407492
 40
0.4561384508
 40
0.7160002049
 40
1.0
 40
1.0
 40
1.0
 40
1.0
 10
266.5527996069704
 20
147.7859925909825
 30
0.0
 10
266.5527996069704
 20
147.8527245894825
 30
0.0
 10
266.5817764309704
 20
147.9921196347823
 30
0.0
 10
266.7033505984709
 20
148.1765936462825
 30
0.0
 10
266.8890357272703
 20
148.3271926136827
 30
0.0
 10
267.0403308468703
 20
148.3965379128826
 30
0.0
 10
267.1218207330712
 20
148.4240588924827
 30
0.0
  0
SPLINE
  5
4A6
330
21
100
AcDbEntity
  8
1
100
AcDbSpline
210
0.0
220
0.0
230
1.0
 70
     8
 71
     3
 72
     9
 73
     5
 74
     0
 42
0.000000001
 43
0.0000000001
 40
0.0
 40
0.0
 40
0.0
 40
0.0
 40
0.2542567241
 40
1.0
 40
1.0
 40
1.0
 40
1.0
 10
274.3370216038711
 20
108.6444184081824
 30
0.0
 10
274.1756669716706
 20
108.6509010760824
 30
0.0
 10
273.5422076578707
 20
108.6981418559826
 30
0.0
 10
272.9145008445703
 20
108.8323779825823
 30
0.0
 10
272.4657606845703
 20
108.9839276948824
 30
0.0
  0
SPLINE
  5
4A7
330
21
100
AcDbEntity
  8
1
100
AcDbSpline
210
0.0
220
0.0
230
1.0
 70
     8
 71
     3
 72
     9
 73
     5
 74
     0
 42
0.000000001
 43
0.0000000001
 40
0.0
 40
0.0
 40
0.0
 40
0.0
 40
0.2452389101
 40
1.0
 40
1.0
 40
1.0
 40
1.0
 10
272.4657606845703
 20
147.4405076260828
 30
0.0
 10
272.613336396771
 20
147.4903472854826
 30
0.0
 10
273.222720291571
 20
147.6705371533826
 30
0.0
 10
273.8580184071707
 20
147.7607722304824
 30
0.0
 10
274.3370216038711
 20
147.7800169127827
 30
0.0
  0
SPLINE
  5
4A8
330
21
100
AcDbEntity
  8
1
100
AcDbSpline
210
0.0
220
0.0
230
1.0
 70
     8
 71
     3
 72
     9
 73
     5
 74
     0
 42
0.000000001
 43
0.0000000001
 40
0.0
 40
0.0
 40
0.0
 40
0.0
 40
0.2452389101
 40
1.0
 40
1.0
 40
1.0
 40
1.0
 10
272.2756019039716
 20
150.1646074845826
 30
0.0
 10
272.4379351874704
 20
150.2194311099825
 30
0.0
 10
273.1082574717711
 20
150.4176399646826
 30
0.0
 10
273.8070853989702
 20
150.5168985494824
 30
0.0
 10
274.3339889152703
 20
150.5380677000826
 30
0.0
  0
SPLINE
  5
4A9
330
21
100
AcDbEntity
  8
1
100
AcDbSpline
210
0.0
220
0.0
230
1.0
 70
     8
 71
     3
 72
    11
 73
     7
 74
     0
 42
0.000000001
 43
0.0000000001
 40
0.0
 40
0.0
 40
0.0
 40
0.0
 40
0.2839997951
 40
0.5438615492000001
 40
0.7796592508
 40
1.0
 40
1.0
 40
1.0
 40
1.0
 10
267.1218207330712
 20
108.0003764284825
 30
0.0
 10
267.0403308468703
 20
108.0278974080825
 30
0.0
 10
266.8890357272703
 20
108.0972427072825
 30
0.0
 10
266.7033505984709
 20
108.2478416746826
 30
0.0
 10
266.5817764309704
 20
108.4323156861824
 30
0.0
 10
266.5527996069704
 20
108.5717107314827
 30
0.0
 10
266.5527996069704
 20
108.6384427299827
 30
0.0
  0
SPLINE
  5
4AA
330
21
100
AcDbEntity
  8
1
100
AcDbSpline
210
0.0
220
0.0
230
1.0
 70
     8
 71
     3
 72
     9
 73
     5
 74
     0
 42
0.000000001
 43
0.0000000001
 40
0.0
 40
0.0
 40
0.0
 40
0.0
 40
0.2542567241
 40
1.0
 40
1.0
 40
1.0
 40
1.0
 10
274.3339889152703
 20
105.8863676208825
 30
0.0
 10
274.1564988198716
 20
105.8934985555825
 30
0.0
 10
273.4596935746704
 20
105.9454634134827
 30
0.0
 10
272.7692160800707
 20
106.0931231527825
 30
0.0
 10
272.2756019039716
 20
106.2598278363826
 30
0.0
  0
SPLINE
  5
4AB
330
21
100
AcDbEntity
  8
1
100
AcDbSpline
210
0.0
220
0.0
230
1.0
 70
     8
 71
     3
 72
     9
 73
     5
 74
     0
 42
0.000000001
 43
0.0000000001
 40
0.0
 40
0.0
 40
0.0
 40
0.0
 40
0.2653823593
 40
1.0
 40
1.0
 40
1.0
 40
1.0
 10
283.4707141068702
 20
108.5933282243823
 30
0.0
 10
283.4954921204717
 20
108.5977083997827
 30
0.0
 10
283.5895295698701
 20
108.6091177017825
 30
0.0
 10
283.6872649592715
 20
108.5998940116824
 30
0.0
 10
283.7531032303705
 20
108.5771604130823
 30
0.0
  0
SPLINE
  5
4AC
330
21
100
AcDbEntity
  8
1
100
AcDbSpline
210
0.0
220
0.0
230
1.0
 70
     8
 71
     3
 72
     9
 73
     5
 74
     0
 42
0.000000001
 43
0.0000000001
 40
0.0
 40
0.0
 40
0.0
 40
0.0
 40
0.2417235607
 40
1.0
 40
1.0
 40
1.0
 40
1.0
 10
283.7545695896715
 20
108.3246822607825
 30
0.0
 10
283.7395964984717
 20
108.3265913215823
 30
0.0
 10
283.6773298576718
 20
108.3318531242826
 30
0.0
 10
283.614355590571
 20
108.3271730964825
 30
0.0
 10
283.5677283568712
 20
108.3189304881826
 30
0.0
  0
SPLINE
  5
4AD
330
21
100
AcDbEntity
  8
1
100
AcDbSpline
210
0.0
220
0.0
230
1.0
 70
     8
 71
     3
 72
     9
 73
     5
 74
     0
 42
0.000000001
 43
0.0000000001
 40
0.0
 40
0.0
 40
0.0
 40
0.0
 40
0.2542567241
 40
1.0
 40
1.0
 40
1.0
 40
1.0
 10
274.3339889152703
 20
148.0631939658824
 30
0.0
 10
274.1564988198716
 20
148.0560630312825
 30
0.0
 10
273.4596935746704
 20
148.0040981732827
 30
0.0
 10
272.7692160800707
 20
147.8564384339825
 30
0.0
 10
272.2756019039716
 20
147.6897337504824
 30
0.0
  0
SPLINE
  5
4AE
330
21
100
AcDbEntity
  8
1
100
AcDbSpline
210
0.0
220
0.0
230
1.0
 70
     8
 71
     3
 72
     9
 73
     5
 74
     0
 42
0.000000001
 43
0.0000000001
 40
0.0
 40
0.0
 40
0.0
 40
0.0
 40
0.2452389101
 40
1.0
 40
1.0
 40
1.0
 40
1.0
 10
272.2756019039716
 20
108.7347015704827
 30
0.0
 10
272.4379351874704
 20
108.6798779451824
 30
0.0
 10
273.1082574717711
 20
108.4816690903826
 30
0.0
 10
273.8070853989702
 20
108.3824105055824
 30
0.0
 10
274.3339889152703
 20
108.3612413550827
 30
0.0
  0
SPLINE
  5
4AF
330
21
100
AcDbEntity
  8
1
100
AcDbSpline
210
0.0
220
0.0
230
1.0
 70
     8
 71
     3
 72
     9
 73
     5
 74
     0
 42
0.000000001
 43
0.0000000001
 40
0.0
 40
0.0
 40
0.0
 40
0.0
 40
0.2574865501
 40
1.0
 40
1.0
 40
1.0
 40
1.0
 10
283.5677283568712
 20
148.1055048327826
 30
0.0
 10
283.5835598107715
 20
148.1027062006824
 30
0.0
 10
283.6453875467705
 20
148.0940038980825
 30
0.0
 10
283.7085809065702
 20
148.0938895284826
 30
0.0
 10
283.7545695896715
 20
148.0997530601826
 30
0.0
  0
SPLINE
  5
4B0
330
21
100
AcDbEntity
  8
1
100
AcDbSpline
210
0.0
220
0.0
230
1.0
 70
     8
 71
     3
 72
    11
 73
     7
 74
     0
 42
0.000000001
 43
0.0000000001
 40
0.0
 40
0.0
 40
0.0
 40
0.0
 40
0.2881036865
 40
0.5550261768000001
 40
0.7900658036000001
 40
1.0
 40
1.0
 40
1.0
 40
1.0
 10
266.6397111327715
 20
110.3738182169827
 30
0.0
 10
266.5765230573707
 20
110.3749882227826
 30
0.0
 10
266.4543348142706
 20
110.3934596911827
 30
0.0
 10
266.2949490168703
 20
110.4681691737824
 30
0.0
 10
266.1820861040705
 20
110.5824333777823
 30
0.0
 10
266.1527996069708
 20
110.6811989371827
 30
0.0
 10
266.1527996069708
 20
110.7272504536827
 30
0.0
  0
SPLINE
  5
4B1
330
21
100
AcDbEntity
  8
1
100
AcDbSpline
210
0.0
220
0.0
230
1.0
 70
     8
 71
     3
 72
    11
 73
     7
 74
     0
 42
0.000000001
 43
0.0000000001
 40
0.0
 40
0.0
 40
0.0
 40
0.0
 40
0.2099341964
 40
0.4449738232
 40
0.7118963135
 40
1.0
 40
1.0
 40
1.0
 40
1.0
 10
266.1527996069708
 20
145.6971848672824
 30
0.0
 10
266.1527996069708
 20
145.7432363837825
 30
0.0
 10
266.1820861040705
 20
145.8420019431824
 30
0.0
 10
266.2949490168703
 20
145.9562661471823
 30
0.0
 10
266.4543348142706
 20
146.0309756297825
 30
0.0
 10
266.5765230573707
 20
146.0494470981826
 30
0.0
 10
266.6397111327715
 20
146.0506171039824
 30
0.0
  0
SPLINE
  5
4B2
330
21
100
AcDbEntity
  8
1
100
AcDbSpline
210
0.0
220
0.0
230
1.0
 70
     8
 71
     3
 72
    11
 73
     7
 74
     0
 42
0.000000001
 43
0.0000000001
 40
0.0
 40
0.0
 40
0.0
 40
0.0
 40
0.2099341195
 40
0.4449736759000001
 40
0.7118962192
 40
1.0
 40
1.0
 40
1.0
 40
1.0
 10
266.1527996069708
 20
113.2521879337824
 30
0.0
 10
266.1527996069708
 20
113.2061364325823
 30
0.0
 10
266.18208606587
 20
113.1073708994827
 30
0.0
 10
266.29494893827
 20
112.9931066732825
 30
0.0
 10
266.4543347513718
 20
112.9183971621824
 30
0.0
 10
266.5765230342713
 20
112.8999256925827
 30
0.0
 10
266.6397111326714
 20
112.8987556965826
 30
0.0
  0
SPLINE
  5
4B3
330
21
100
AcDbEntity
  8
1
100
AcDbSpline
210
0.0
220
0.0
230
1.0
 70
     8
 71
     3
 72
    11
 73
     7
 74
     0
 42
0.000000001
 43
0.0000000001
 40
0.0
 40
0.0
 40
0.0
 40
0.0
 40
0.2099341967
 40
0.4449738249000001
 40
0.7118963156
 40
1.0
 40
1.0
 40
1.0
 40
1.0
 10
266.1527996069708
 20
143.1722473871823
 30
0.0
 10
266.1527996069708
 20
143.2182989038824
 30
0.0
 10
266.1820861042706
 20
143.3170644639827
 30
0.0
 10
266.2949490166702
 20
143.4313286693823
 30
0.0
 10
266.4543348131701
 20
143.5060381557823
 30
0.0
 10
266.5765230575707
 20
143.5245096207827
 30
0.0
 10
266.6397111327715
 20
143.5256796238828
 30
0.0
  0
SPLINE
  5
4B4
330
21
100
AcDbEntity
  8
1
100
AcDbSpline
210
0.0
220
0.0
230
1.0
 70
     8
 71
     3
 72
    11
 73
     7
 74
     0
 42
0.000000001
 43
0.0000000001
 40
0.0
 40
0.0
 40
0.0
 40
0.0
 40
0.2099340712
 40
0.4449736221000001
 40
0.7118961906
 40
1.0
 40
1.0
 40
1.0
 40
1.0
 10
266.1527996069708
 20
150.8384174377825
 30
0.0
 10
266.1527996069708
 20
150.8844689254825
 30
0.0
 10
266.1820860745702
 20
150.9832344385827
 30
0.0
 10
266.2949489469702
 20
151.0974986376823
 30
0.0
 10
266.4543347516701
 20
151.1722081579824
 30
0.0
 10
266.5765230322704
 20
151.1906796575827
 30
0.0
 10
266.6397111326714
 20
151.1918496739827
 30
0.0
  0
SPLINE
  5
4B5
330
21
100
AcDbEntity
  8
1
100
AcDbSpline
210
0.0
220
0.0
230
1.0
 70
     8
 71
     3
 72
    18
 73
    14
 74
     0
 42
0.000000001
 43
0.0000000001
 40
0.0
 40
0.0
 40
0.0
 40
0.0
 40
0.0041524551
 40
0.0164982399
 40
0.0370134624
 40
0.0656629697
 40
0.1023953428
 40
0.1471028223
 40
0.2599592042
 40
0.4031898734000001
 40
0.575452526
 40
0.7751585409000001
 40
1.0
 40
1.0
 40
1.0
 40
1.0
 10
266.6397111327715
 20
104.6469999432825
 30
0.0
 10
266.6389007564703
 20
104.6470238172824
 30
0.0
 10
266.6402819018713
 20
104.6521198331825
 30
0.0
 10
266.6386159487702
 20
104.6575399121825
 30
0.0
 10
266.6392928506702
 20
104.6705730244826
 30
0.0
 10
266.6387780848709
 20
104.6868915877826
 30
0.0
 10
266.6388090967703
 20
104.7085594211826
 30
0.0
 10
266.6386246515704
 20
104.7464113935825
 30
0.0
 10
266.638627216671
 20
104.8051921785827
 30
0.0
 10
266.638687531271
 20
104.8888004575824
 30
0.0
 10
266.6389056925709
 20
104.9893962278825
 30
0.0
 10
266.6392458509708
 20
105.1059145426825
 30
0.0
 10
266.6395435614704
 20
105.1888036415826
 30
0.0
 10
266.6397118971709
 20
105.2327015061824
 30
0.0
  0
SPLINE
  5
4B6
330
21
100
AcDbEntity
  8
1
100
AcDbSpline
210
0.0
220
0.0
230
1.0
 70
     8
 71
     3
 72
    18
 73
    14
 74
     0
 42
0.000000001
 43
0.0000000001
 40
0.0
 40
0.0
 40
0.0
 40
0.0
 40
0.2248528368
 40
0.4245533384000001
 40
0.5968142392
 40
0.7400464548000001
 40
0.8529036103000001
 40
0.8976097498000001
 40
0.9343392249
 40
0.9629839987
 40
0.9834948909999999
 40
0.9958403309999999
 40
1.0
 40
1.0
 40
1.0
 40
1.0
 10
266.6397111327715
 20
151.1918496744825
 30
0.0
 10
266.639543095971
 20
151.2357410767827
 30
0.0
 10
266.6392455947716
 20
151.3186149026824
 30
0.0
 10
266.6389052265713
 20
151.4351110473826
 30
0.0
 10
266.6386871957711
 20
151.5356855703826
 30
0.0
 10
266.6386271502706
 20
151.6192780705824
 30
0.0
 10
266.6386249510706
 20
151.6780459054826
 30
0.0
 10
266.6388093893711
 20
151.7158920484826
 30
0.0
 10
266.6387785968709
 20
151.7375488913826
 30
0.0
 10
266.6392925300715
 20
151.7538747727826
 30
0.0
 10
266.6386170104706
 20
151.7668742068827
 30
0.0
 10
266.6402806329716
 20
151.7723446768823
 30
0.0
 10
266.6389004420707
 20
151.7773897145826
 30
0.0
 10
266.6397111327715
 20
151.7774353776827
 30
0.0
  0
SPLINE
  5
4B7
330
21
100
AcDbEntity
  8
1
100
AcDbSpline
210
0.0
220
0.0
230
1.0
 70
     8
 71
     3
 72
    11
 73
     7
 74
     0
 42
0.000000001
 43
0.0000000001
 40
0.0
 40
0.0
 40
0.0
 40
0.0
 40
0.2099341964
 40
0.4449738232
 40
0.7118963135
 40
1.0
 40
1.0
 40
1.0
 40
1.0
 10
266.1527996069708
 20
108.1109553632823
 30
0.0
 10
266.1527996069708
 20
108.0649038467827
 30
0.0
 10
266.1820861040705
 20
107.9661382873824
 30
0.0
 10
266.2949490168703
 20
107.8518740833824
 30
0.0
 10
266.4543348142706
 20
107.7771646007823
 30
0.0
 10
266.5765230573707
 20
107.7586931323826
 30
0.0
 10
266.6397111327715
 20
107.7575231265823
 30
0.0
  0
SPLINE
  5
4B8
330
21
100
AcDbEntity
  8
1
100
AcDbSpline
210
0.0
220
0.0
230
1.0
 70
     8
 71
     3
 72
     9
 73
     5
 74
     0
 42
0.000000001
 43
0.0000000001
 40
0.0
 40
0.0
 40
0.0
 40
0.0
 40
0.4717899929
 40
1.0
 40
1.0
 40
1.0
 40
1.0
 10
266.1527996069708
 20
105.5860178831826
 30
0.0
 10
266.1527996069708
 20
105.5399663671824
 30
0.0
 10
266.181955786371
 20
105.4412815703827
 30
0.0
 10
266.2529233505702
 20
105.3695986432826
 30
0.0
 10
266.2946486340716
 20
105.3393117036826
 30
0.0
  0
SPLINE
  5
4B9
330
21
100
AcDbEntity
  8
1
100
AcDbSpline
210
0.0
220
0.0
230
1.0
 70
     8
 71
     3
 72
     9
 73
     5
 74
     0
 42
0.000000001
 43
0.0000000001
 40
0.0
 40
0.0
 40
0.0
 40
0.0
 40
0.2352402501
 40
1.0
 40
1.0
 40
1.0
 40
1.0
 10
266.2946486340716
 20
105.3393117036826
 30
0.0
 10
266.3177704653699
 20
105.3225283664824
 30
0.0
 10
266.4227440837712
 20
105.2605045355826
 30
0.0
 10
266.5468436408701
 20
105.2343052074825
 30
0.0
 10
266.6397111327715
 20
105.2325856464827
 30
0.0
  0
SPLINE
  5
4BA
330
21
100
AcDbEntity
  8
1
100
AcDbSpline
210
0.0
220
0.0
230
1.0
 70
     8
 71
     3
 72
    11
 73
     7
 74
     0
 42
0.000000001
 43
0.0000000001
 40
0.0
 40
0.0
 40
0.0
 40
0.0
 40
0.2881036865
 40
0.5550261768000001
 40
0.7900658036000001
 40
1.0
 40
1.0
 40
1.0
 40
1.0
 10
266.6397111327715
 20
148.6669121943823
 30
0.0
 10
266.5765230573707
 20
148.6657421885825
 30
0.0
 10
266.4543348142706
 20
148.6472707201824
 30
0.0
 10
266.2949490168703
 20
148.5725612375827
 30
0.0
 10
266.1820861040705
 20
148.4582970335823
 30
0.0
 10
266.1527996069708
 20
148.3595314741824
 30
0.0
 10
266.1527996069708
 20
148.3134799576824
 30
0.0
  0
SPLINE
  5
4BB
330
21
100
AcDbEntity
  8
1
100
AcDbSpline
210
0.0
220
0.0
230
1.0
 70
     8
 71
     3
 72
     9
 73
     5
 74
     0
 42
0.000000001
 43
0.0000000001
 40
0.0
 40
0.0
 40
0.0
 40
0.0
 40
0.2340396101
 40
1.0
 40
1.0
 40
1.0
 40
1.0
 10
74.8440959835716
 20
108.5771604130823
 30
0.0
 10
74.86508225677062
 20
108.5844068595825
 30
0.0
 10
74.95717309677093
 20
108.6082931672827
 30
0.0
 10
75.05493181187012
 20
108.6059771794826
 30
0.0
 10
75.12648510707004
 20
108.5933282243823
 30
0.0
  0
SPLINE
  5
4BC
330
21
100
AcDbEntity
  8
1
100
AcDbSpline
210
0.0
220
0.0
230
1.0
 70
     8
 71
     3
 72
    11
 73
     7
 74
     0
 42
0.000000001
 43
0.0000000001
 40
0.0
 40
0.0
 40
0.0
 40
0.0
 40
0.2203407492
 40
0.4561384508
 40
0.7160002049
 40
1.0
 40
1.0
 40
1.0
 40
1.0
 10
92.04439960697164
 20
108.6384427299827
 30
0.0
 10
92.04439960697164
 20
108.5717107314827
 30
0.0
 10
92.01542278297165
 20
108.4323156861824
 30
0.0
 10
91.89384861547114
 20
108.2478416746826
 30
0.0
 10
91.70816348666995
 20
108.0972427072825
 30
0.0
 10
91.55686836707173
 20
108.0278974080825
 30
0.0
 10
91.47537848087086
 20
108.0003764284825
 30
0.0
  0
SPLINE
  5
4BD
330
21
100
AcDbEntity
  8
1
100
AcDbSpline
210
0.0
220
0.0
230
1.0
 70
     8
 71
     3
 72
     9
 73
     5
 74
     0
 42
0.000000001
 43
0.0000000001
 40
0.0
 40
0.0
 40
0.0
 40
0.0
 40
0.2542567241
 40
1.0
 40
1.0
 40
1.0
 40
1.0
 10
84.26017761007097
 20
147.7800169127827
 30
0.0
 10
84.4215322422715
 20
147.7735342448823
 30
0.0
 10
85.0549915560714
 20
147.7262934649825
 30
0.0
 10
85.68269836936997
 20
147.5920573383823
 30
0.0
 10
86.13143852937174
 20
147.4405076260828
 30
0.0
  0
SPLINE
  5
4BE
330
21
100
AcDbEntity
  8
1
100
AcDbSpline
210
0.0
220
0.0
230
1.0
 70
     8
 71
     3
 72
     9
 73
     5
 74
     0
 42
0.000000001
 43
0.0000000001
 40
0.0
 40
0.0
 40
0.0
 40
0.0
 40
0.2452389101
 40
1.0
 40
1.0
 40
1.0
 40
1.0
 10
86.13143852937174
 20
108.9839276948824
 30
0.0
 10
85.98386281717103
 20
108.9340880354825
 30
0.0
 10
85.37447892237105
 20
108.7538981675825
 30
0.0
 10
84.7391808067714
 20
108.6636630904827
 30
0.0
 10
84.26017761007097
 20
108.6444184081824
 30
0.0
  0
SPLINE
  5
4BF
330
21
100
AcDbEntity
  8
1
100
AcDbSpline
210
0.0
220
0.0
230
1.0
 70
     8
 71
     3
 72
     9
 73
     5
 74
     0
 42
0.000000001
 43
0.0000000001
 40
0.0
 40
0.0
 40
0.0
 40
0.0
 40
0.2452389101
 40
1.0
 40
1.0
 40
1.0
 40
1.0
 10
86.32159730997046
 20
106.2598278363826
 30
0.0
 10
86.15926402647165
 20
106.2050042109827
 30
0.0
 10
85.48894174217094
 20
106.0067953562825
 30
0.0
 10
84.79011381497003
 20
105.9075367714827
 30
0.0
 10
84.26321029866995
 20
105.8863676208825
 30
0.0
  0
SPLINE
  5
4C0
330
21
100
AcDbEntity
  8
1
100
AcDbSpline
210
0.0
220
0.0
230
1.0
 70
     8
 71
     3
 72
    11
 73
     7
 74
     0
 42
0.000000001
 43
0.0000000001
 40
0.0
 40
0.0
 40
0.0
 40
0.0
 40
0.2839997951
 40
0.5438615492000001
 40
0.7796592508
 40
1.0
 40
1.0
 40
1.0
 40
1.0
 10
91.47537848087086
 20
148.4240588924827
 30
0.0
 10
91.55686836707173
 20
148.3965379128826
 30
0.0
 10
91.70816348666995
 20
148.3271926136827
 30
0.0
 10
91.89384861547114
 20
148.1765936462825
 30
0.0
 10
92.01542278297165
 20
147.9921196347823
 30
0.0
 10
92.04439960697164
 20
147.8527245894825
 30
0.0
 10
92.04439960697164
 20
147.7859925909825
 30
0.0
  0
SPLINE
  5
4C1
330
21
100
AcDbEntity
  8
1
100
AcDbSpline
210
0.0
220
0.0
230
1.0
 70
     8
 71
     3
 72
     9
 73
     5
 74
     0
 42
0.000000001
 43
0.0000000001
 40
0.0
 40
0.0
 40
0.0
 40
0.0
 40
0.2542567241
 40
1.0
 40
1.0
 40
1.0
 40
1.0
 10
84.26321029866995
 20
150.5380677000826
 30
0.0
 10
84.44070039407052
 20
150.5309367653826
 30
0.0
 10
85.1375056392717
 20
150.4789719074824
 30
0.0
 10
85.82798313387138
 20
150.3313121681826
 30
0.0
 10
86.32159730997046
 20
150.1646074845826
 30
0.0
  0
SPLINE
  5
4C2
330
21
100
AcDbEntity
  8
1
100
AcDbSpline
210
0.0
220
0.0
230
1.0
 70
     8
 71
     3
 72
     9
 73
     5
 74
     0
 42
0.000000001
 43
0.0000000001
 40
0.0
 40
0.0
 40
0.0
 40
0.0
 40
0.2653823593
 40
1.0
 40
1.0
 40
1.0
 40
1.0
 10
75.12648510707004
 20
147.8311070965824
 30
0.0
 10
75.1017070934704
 20
147.8267269211824
 30
0.0
 10
75.00766964407012
 20
147.8153176191827
 30
0.0
 10
74.90993425467059
 20
147.8245413092827
 30
0.0
 10
74.8440959835716
 20
147.8472749078824
 30
0.0
  0
SPLINE
  5
4C3
330
21
100
AcDbEntity
  8
1
100
AcDbSpline
210
0.0
220
0.0
230
1.0
 70
     8
 71
     3
 72
     9
 73
     5
 74
     0
 42
0.000000001
 43
0.0000000001
 40
0.0
 40
0.0
 40
0.0
 40
0.0
 40
0.2417235607
 40
1.0
 40
1.0
 40
1.0
 40
1.0
 10
74.84262962427056
 20
148.0997530601826
 30
0.0
 10
74.85760271547042
 20
148.0978439993823
 30
0.0
 10
74.91986935627028
 20
148.0925821966825
 30
0.0
 10
74.98284362337108
 20
148.0972622244826
 30
0.0
 10
75.02947085707092
 20
148.1055048327826
 30
0.0
  0
SPLINE
  5
4C4
330
21
100
AcDbEntity
  8
1
100
AcDbSpline
210
0.0
220
0.0
230
1.0
 70
     8
 71
     3
 72
     9
 73
     5
 74
     0
 42
0.000000001
 43
0.0000000001
 40
0.0
 40
0.0
 40
0.0
 40
0.0
 40
0.2542567241
 40
1.0
 40
1.0
 40
1.0
 40
1.0
 10
84.26321029866995
 20
108.3612413550827
 30
0.0
 10
84.44070039407052
 20
108.3683722896826
 30
0.0
 10
85.1375056392717
 20
108.4203371476824
 30
0.0
 10
85.82798313387138
 20
108.5679968869827
 30
0.0
 10
86.32159730997046
 20
108.7347015704827
 30
0.0
  0
SPLINE
  5
4C5
330
21
100
AcDbEntity
  8
1
100
AcDbSpline
210
0.0
220
0.0
230
1.0
 70
     8
 71
     3
 72
     9
 73
     5
 74
     0
 42
0.000000001
 43
0.0000000001
 40
0.0
 40
0.0
 40
0.0
 40
0.0
 40
0.2452389101
 40
1.0
 40
1.0
 40
1.0
 40
1.0
 10
86.32159730997046
 20
147.6897337504824
 30
0.0
 10
86.15926402647165
 20
147.7445573757823
 30
0.0
 10
85.48894174217094
 20
147.9427662305825
 30
0.0
 10
84.79011381497003
 20
148.0420248153823
 30
0.0
 10
84.26321029866995
 20
148.0631939658824
 30
0.0
  0
SPLINE
  5
4C6
330
21
100
AcDbEntity
  8
1
100
AcDbSpline
210
0.0
220
0.0
230
1.0
 70
     8
 71
     3
 72
     9
 73
     5
 74
     0
 42
0.000000001
 43
0.0000000001
 40
0.0
 40
0.0
 40
0.0
 40
0.0
 40
0.2574865501
 40
1.0
 40
1.0
 40
1.0
 40
1.0
 10
75.02947085707092
 20
108.3189304881826
 30
0.0
 10
75.0136394031706
 20
108.3217291202827
 30
0.0
 10
74.95181166717157
 20
108.3304314228826
 30
0.0
 10
74.88861830737005
 20
108.3305457924826
 30
0.0
 10
74.84262962427056
 20
108.3246822607825
 30
0.0
  0
SPLINE
  5
4C7
330
21
100
AcDbEntity
  8
1
100
AcDbSpline
210
0.0
220
0.0
230
1.0
 70
     8
 71
     3
 72
    11
 73
     7
 74
     0
 42
0.000000001
 43
0.0000000001
 40
0.0
 40
0.0
 40
0.0
 40
0.0
 40
0.2099341964
 40
0.4449738232
 40
0.7118963135
 40
1.0
 40
1.0
 40
1.0
 40
1.0
 10
92.44439960697127
 20
110.7272504536827
 30
0.0
 10
92.44439960697127
 20
110.6811989371827
 30
0.0
 10
92.41511310987153
 20
110.5824333777823
 30
0.0
 10
92.30225019706995
 20
110.4681691737824
 30
0.0
 10
92.14286439967145
 20
110.3934596911827
 30
0.0
 10
92.02067615657143
 20
110.3749882227826
 30
0.0
 10
91.9574880811706
 20
110.3738182169827
 30
0.0
  0
SPLINE
  5
4C8
330
21
100
AcDbEntity
  8
1
100
AcDbSpline
210
0.0
220
0.0
230
1.0
 70
     8
 71
     3
 72
    11
 73
     7
 74
     0
 42
0.000000001
 43
0.0000000001
 40
0.0
 40
0.0
 40
0.0
 40
0.0
 40
0.2881036865
 40
0.5550261768000001
 40
0.7900658036000001
 40
1.0
 40
1.0
 40
1.0
 40
1.0
 10
91.9574880811706
 20
146.0506171039824
 30
0.0
 10
92.02067615657143
 20
146.0494470981826
 30
0.0
 10
92.14286439967145
 20
146.0309756297825
 30
0.0
 10
92.30225019706995
 20
145.9562661471823
 30
0.0
 10
92.41511310987153
 20
145.8420019431824
 30
0.0
 10
92.44439960697127
 20
145.7432363837825
 30
0.0
 10
92.44439960697127
 20
145.6971848672824
 30
0.0
  0
SPLINE
  5
4C9
330
21
100
AcDbEntity
  8
1
100
AcDbSpline
210
0.0
220
0.0
230
1.0
 70
     8
 71
     3
 72
    18
 73
    14
 74
     0
 42
0.000000001
 43
0.0000000001
 40
0.0
 40
0.0
 40
0.0
 40
0.0
 40
0.2248528368
 40
0.4245533384000001
 40
0.5968142392
 40
0.7400464548000001
 40
0.8529036103000001
 40
0.8976097498000001
 40
0.9343392249
 40
0.9629839987
 40
0.9834948909999999
 40
0.9958403309999999
 40
1.0
 40
1.0
 40
1.0
 40
1.0
 10
91.9574880811706
 20
105.2325856464827
 30
0.0
 10
91.95765611797106
 20
105.1886942441824
 30
0.0
 10
91.95795361917044
 20
105.1058204182827
 30
0.0
 10
91.95829398737078
 20
104.9893242735825
 30
0.0
 10
91.95851201817095
 20
104.8887497505825
 30
0.0
 10
91.95857206367145
 20
104.8051572503828
 30
0.0
 10
91.95857426287148
 20
104.7463894154826
 30
0.0
 10
91.95838982457099
 20
104.7085432724825
 30
0.0
 10
91.95842061707117
 20
104.6868864295825
 30
0.0
 10
91.95790668387053
 20
104.6705605481825
 30
0.0
 10
91.95858220347145
 20
104.6575611140825
 30
0.0
 10
91.95691858097052
 20
104.6520906440824
 30
0.0
 10
91.95829877187134
 20
104.6470456063826
 30
0.0
 10
91.9574880811706
 20
104.6469999432825
 30
0.0
  0
SPLINE
  5
4CA
330
21
100
AcDbEntity
  8
1
100
AcDbSpline
210
0.0
220
0.0
230
1.0
 70
     8
 71
     3
 72
    18
 73
    14
 74
     0
 42
0.000000001
 43
0.0000000001
 40
0.0
 40
0.0
 40
0.0
 40
0.0
 40
0.0041524372
 40
0.0164981325
 40
0.0370131649
 40
0.0656623502
 40
0.102394283
 40
0.1471013165
 40
0.2599572677
 40
0.4031883708
 40
0.5754501368
 40
0.7751535869000001
 40
1.0
 40
1.0
 40
1.0
 40
1.0
 10
91.9574880811706
 20
151.7774353776827
 30
0.0
 10
91.95829829366994
 20
151.7774115084826
 30
0.0
 10
91.9569174890712
 20
151.7723165393827
 30
0.0
 10
91.95858308167044
 20
151.7668975706824
 30
0.0
 10
91.95790636947095
 20
151.7538671682823
 30
0.0
 10
91.95842104617077
 20
151.7375520118826
 30
0.0
 10
91.95839007727045
 20
151.7158887034825
 30
0.0
 10
91.95857452847122
 20
151.6780444746823
 30
0.0
 10
91.95857200587125
 20
151.6192754037825
 30
0.0
 10
91.95851171577124
 20
151.5356838355824
 30
0.0
 10
91.9582936770712
 20
151.4351085530825
 30
0.0
 10
91.95795380247
 20
151.3186129925825
 30
0.0
 10
91.95765631087124
 20
151.2357398230824
 30
0.0
 10
91.9574880811706
 20
151.1918496744825
 30
0.0
  0
SPLINE
  5
4CB
330
21
100
AcDbEntity
  8
1
100
AcDbSpline
210
0.0
220
0.0
230
1.0
 70
     8
 71
     3
 72
     9
 73
     5
 74
     0
 42
0.000000001
 43
0.0000000001
 40
0.0
 40
0.0
 40
0.0
 40
0.0
 40
0.4717910169
 40
1.0
 40
1.0
 40
1.0
 40
1.0
 10
92.44439960697127
 20
105.5860178831826
 30
0.0
 10
92.44439960697127
 20
105.5399676491825
 30
0.0
 10
92.41524520727035
 20
105.4412858185824
 30
0.0
 10
92.34428118307005
 20
105.3696037933823
 30
0.0
 10
92.3025578322704
 20
105.3393169952824
 30
0.0
  0
SPLINE
  5
4CC
330
21
100
AcDbEntity
  8
1
100
AcDbSpline
210
0.0
220
0.0
230
1.0
 70
     8
 71
     3
 72
     9
 73
     5
 74
     0
 42
0.000000001
 43
0.0000000001
 40
0.0
 40
0.0
 40
0.0
 40
0.0
 40
0.2352395196
 40
1.0
 40
1.0
 40
1.0
 40
1.0
 10
92.3025578322704
 20
105.3393169952824
 30
0.0
 10
92.27943584837158
 20
105.3225328481826
 30
0.0
 10
92.17446064957039
 20
105.2605058330823
 30
0.0
 10
92.0503578975713
 20
105.2343052620827
 30
0.0
 10
91.95748808127064
 20
105.2325856469824
 30
0.0
  0
SPLINE
  5
4CD
330
21
100
AcDbEntity
  8
1
100
AcDbSpline
210
0.0
220
0.0
230
1.0
 70
     8
 71
     3
 72
    11
 73
     7
 74
     0
 42
0.000000001
 43
0.0000000001
 40
0.0
 40
0.0
 40
0.0
 40
0.0
 40
0.2099341195
 40
0.4449736759000001
 40
0.7118962192
 40
1.0
 40
1.0
 40
1.0
 40
1.0
 10
92.44439960697127
 20
143.1722473871823
 30
0.0
 10
92.44439960697127
 20
143.2182988883824
 30
0.0
 10
92.4151131480703
 20
143.3170644214824
 30
0.0
 10
92.3022502756703
 20
143.4313286476827
 30
0.0
 10
92.14286446257029
 20
143.5060381587828
 30
0.0
 10
92.02067617967077
 20
143.5245096283825
 30
0.0
 10
91.95748808127064
 20
143.5256796243825
 30
0.0
  0
SPLINE
  5
4CE
330
21
100
AcDbEntity
  8
1
100
AcDbSpline
210
0.0
220
0.0
230
1.0
 70
     8
 71
     3
 72
    11
 73
     7
 74
     0
 42
0.000000001
 43
0.0000000001
 40
0.0
 40
0.0
 40
0.0
 40
0.0
 40
0.2099341967
 40
0.4449738249000001
 40
0.7118963156
 40
1.0
 40
1.0
 40
1.0
 40
1.0
 10
92.44439960697127
 20
113.2521879337824
 30
0.0
 10
92.44439960697127
 20
113.2061364170827
 30
0.0
 10
92.41511310967144
 20
113.1073708569825
 30
0.0
 10
92.30225019727004
 20
112.9931066515824
 30
0.0
 10
92.14286440077012
 20
112.9183971651823
 30
0.0
 10
92.02067615637134
 20
112.8999257001824
 30
0.0
 10
91.9574880811706
 20
112.8987556970824
 30
0.0
  0
SPLINE
  5
4CF
330
21
100
AcDbEntity
  8
1
100
AcDbSpline
210
0.0
220
0.0
230
1.0
 70
     8
 71
     3
 72
    11
 73
     7
 74
     0
 42
0.000000001
 43
0.0000000001
 40
0.0
 40
0.0
 40
0.0
 40
0.0
 40
0.2099341964
 40
0.4449738232
 40
0.7118963135
 40
1.0
 40
1.0
 40
1.0
 40
1.0
 10
92.44439960697127
 20
148.3134799576824
 30
0.0
 10
92.44439960697127
 20
148.3595314741824
 30
0.0
 10
92.41511310987153
 20
148.4582970335823
 30
0.0
 10
92.30225019706995
 20
148.5725612375827
 30
0.0
 10
92.14286439967145
 20
148.6472707201824
 30
0.0
 10
92.02067615657143
 20
148.6657421885825
 30
0.0
 10
91.9574880811706
 20
148.6669121943823
 30
0.0
  0
SPLINE
  5
4D0
330
21
100
AcDbEntity
  8
1
100
AcDbSpline
210
0.0
220
0.0
230
1.0
 70
     8
 71
     3
 72
    11
 73
     7
 74
     0
 42
0.000000001
 43
0.0000000001
 40
0.0
 40
0.0
 40
0.0
 40
0.0
 40
0.2881036865
 40
0.5550261768000001
 40
0.7900658036000001
 40
1.0
 40
1.0
 40
1.0
 40
1.0
 10
91.9574880811706
 20
107.7575231265823
 30
0.0
 10
92.02067615657143
 20
107.7586931323826
 30
0.0
 10
92.14286439967145
 20
107.7771646007823
 30
0.0
 10
92.30225019706995
 20
107.8518740833824
 30
0.0
 10
92.41511310987153
 20
107.9661382873824
 30
0.0
 10
92.44439960697127
 20
108.0649038467827
 30
0.0
 10
92.44439960697127
 20
108.1109553632823
 30
0.0
  0
SPLINE
  5
4D1
330
21
100
AcDbEntity
  8
1
100
AcDbSpline
210
0.0
220
0.0
230
1.0
 70
     8
 71
     3
 72
    11
 73
     7
 74
     0
 42
0.000000001
 43
0.0000000001
 40
0.0
 40
0.0
 40
0.0
 40
0.0
 40
0.209934196
 40
0.4449738215
 40
0.7118963113
 40
1.0
 40
1.0
 40
1.0
 40
1.0
 10
92.44439960697127
 20
150.8384174377825
 30
0.0
 10
92.44439960697127
 20
150.8844689539824
 30
0.0
 10
92.41511311007162
 20
150.9832345127825
 30
0.0
 10
92.30225019687168
 20
151.0974987154823
 30
0.0
 10
92.14286439857096
 20
151.1722081941825
 30
0.0
 10
92.02067615677151
 20
151.1906796659823
 30
0.0
 10
91.9574880811706
 20
151.1918496744825
 30
0.0
  0
SPLINE
  5
4D2
330
21
100
AcDbEntity
  8
1
100
AcDbSpline
210
0.0
220
0.0
230
1.0
 70
     8
 71
     3
 72
     9
 73
     5
 74
     0
 42
0.000000001
 43
0.0000000001
 40
0.0
 40
0.0
 40
0.0
 40
0.0
 40
0.2542567241
 40
1.0
 40
1.0
 40
1.0
 40
1.0
 10
151.010662854671
 20
49.47583316358259
 30
0.0
 10
151.0171455225718
 20
49.63718779578267
 30
0.0
 10
151.0643863024707
 20
50.27064710958257
 30
0.0
 10
151.1986224290704
 20
50.89835392288251
 30
0.0
 10
151.3501721413704
 20
51.34709408288245
 30
0.0
  0
SPLINE
  5
4D3
330
21
100
AcDbEntity
  8
1
100
AcDbSpline
210
0.0
220
0.0
230
1.0
 70
     8
 71
     3
 72
    11
 73
     7
 74
     0
 42
0.000000001
 43
0.0000000001
 40
0.0
 40
0.0
 40
0.0
 40
0.0
 40
0.2839997951
 40
0.5438615492000001
 40
0.7796592508
 40
1.0
 40
1.0
 40
1.0
 40
1.0
 10
150.366620874971
 20
56.69103403438248
 30
0.0
 10
150.394141854571
 20
56.77252392058244
 30
0.0
 10
150.463487153771
 20
56.92381904018248
 30
0.0
 10
150.6140861211716
 20
57.10950416898231
 30
0.0
 10
150.7985601326709
 20
57.23107833648237
 30
0.0
 10
150.9379551779712
 20
57.26005516048235
 30
0.0
 10
151.0046871764716
 20
57.26005516048235
 30
0.0
  0
SPLINE
  5
4D4
330
21
100
AcDbEntity
  8
1
100
AcDbSpline
210
0.0
220
0.0
230
1.0
 70
     8
 71
     3
 72
     9
 73
     5
 74
     0
 42
0.000000001
 43
0.0000000001
 40
0.0
 40
0.0
 40
0.0
 40
0.0
 40
0.2542567241
 40
1.0
 40
1.0
 40
1.0
 40
1.0
 10
148.2526120673701
 20
49.47886585218248
 30
0.0
 10
148.2597430020705
 20
49.6563559475826
 30
0.0
 10
148.3117078599716
 20
50.35316119278241
 30
0.0
 10
148.459367599271
 20
51.04363868738255
 30
0.0
 10
148.6260722828702
 20
51.53725286348254
 30
0.0
  0
SPLINE
  5
4D5
330
21
100
AcDbEntity
  8
1
100
AcDbSpline
210
0.0
220
0.0
230
1.0
 70
     8
 71
     3
 72
     9
 73
     5
 74
     0
 42
0.000000001
 43
0.0000000001
 40
0.0
 40
0.0
 40
0.0
 40
0.0
 40
0.2653823593
 40
1.0
 40
1.0
 40
1.0
 40
1.0
 10
150.9595726708703
 20
40.34214066058257
 30
0.0
 10
150.9639528462703
 20
40.31736264698247
 30
0.0
 10
150.9753621482705
 20
40.22332519758265
 30
0.0
 10
150.9661384581705
 20
40.12558980818267
 30
0.0
 10
150.9434048595704
 20
40.05975153708232
 30
0.0
  0
SPLINE
  5
4D6
330
21
100
AcDbEntity
  8
1
100
AcDbSpline
210
0.0
220
0.0
230
1.0
 70
     8
 71
     3
 72
     9
 73
     5
 74
     0
 42
0.000000001
 43
0.0000000001
 40
0.0
 40
0.0
 40
0.0
 40
0.0
 40
0.2452389101
 40
1.0
 40
1.0
 40
1.0
 40
1.0
 10
151.1009460169716
 20
51.53725286348254
 30
0.0
 10
151.0461223916718
 20
51.37491957998236
 30
0.0
 10
150.8479135368707
 20
50.70459729568256
 30
0.0
 10
150.7486549520709
 20
50.00576936848256
 30
0.0
 10
150.7274858015717
 20
49.47886585218248
 30
0.0
  0
SPLINE
  5
4D7
330
21
100
AcDbEntity
  8
1
100
AcDbSpline
210
0.0
220
0.0
230
1.0
 70
     8
 71
     3
 72
     9
 73
     5
 74
     0
 42
0.000000001
 43
0.0000000001
 40
0.0
 40
0.0
 40
0.0
 40
0.0
 40
0.2417235607
 40
1.0
 40
1.0
 40
1.0
 40
1.0
 10
150.6909267072715
 20
40.05828517778264
 30
0.0
 10
150.6928357680699
 20
40.0732582689825
 30
0.0
 10
150.6980975707702
 20
40.13552490978236
 30
0.0
 10
150.6934175429706
 20
40.19849917688271
 30
0.0
 10
150.6851749346715
 20
40.24512641058254
 30
0.0
  0
SPLINE
  5
4D8
330
21
100
AcDbEntity
  8
1
100
AcDbSpline
210
0.0
220
0.0
230
1.0
 70
     8
 71
     3
 72
     9
 73
     5
 74
     0
 42
0.000000001
 43
0.0000000001
 40
0.0
 40
0.0
 40
0.0
 40
0.0
 40
0.2340396101
 40
1.0
 40
1.0
 40
1.0
 40
1.0
 10
190.2135193543709
 20
40.05975153708232
 30
0.0
 10
190.2062729078716
 20
40.0807378102827
 30
0.0
 10
190.1823866001705
 20
40.17282865028255
 30
0.0
 10
190.1847025879706
 20
40.27058736538265
 30
0.0
 10
190.1973515430709
 20
40.34214066058257
 30
0.0
  0
SPLINE
  5
4D9
330
21
100
AcDbEntity
  8
1
100
AcDbSpline
210
0.0
220
0.0
230
1.0
 70
     8
 71
     3
 72
     9
 73
     5
 74
     0
 42
0.000000001
 43
0.0000000001
 40
0.0
 40
0.0
 40
0.0
 40
0.0
 40
0.2452389101
 40
1.0
 40
1.0
 40
1.0
 40
1.0
 10
189.8067520725708
 20
51.34709408288245
 30
0.0
 10
189.8565917319702
 20
51.19951837068265
 30
0.0
 10
190.0367815998707
 20
50.59013447588268
 30
0.0
 10
190.12701667697
 20
49.95483636028257
 30
0.0
 10
190.1462613592703
 20
49.47583316358259
 30
0.0
  0
SPLINE
  5
4DA
330
21
100
AcDbEntity
  8
1
100
AcDbSpline
210
0.0
220
0.0
230
1.0
 70
     8
 71
     3
 72
     9
 73
     5
 74
     0
 42
0.000000001
 43
0.0000000001
 40
0.0
 40
0.0
 40
0.0
 40
0.0
 40
0.2452389101
 40
1.0
 40
1.0
 40
1.0
 40
1.0
 10
192.5308519310711
 20
51.53725286348254
 30
0.0
 10
192.585675556471
 20
51.37491957998236
 30
0.0
 10
192.7838844111702
 20
50.70459729568256
 30
0.0
 10
192.88314299597
 20
50.00576936848256
 30
0.0
 10
192.9043121465711
 20
49.47886585218248
 30
0.0
  0
SPLINE
  5
4DB
330
21
100
AcDbEntity
  8
1
100
AcDbSpline
210
0.0
220
0.0
230
1.0
 70
     8
 71
     3
 72
    11
 73
     7
 74
     0
 42
0.000000001
 43
0.0000000001
 40
0.0
 40
0.0
 40
0.0
 40
0.0
 40
0.2203407492
 40
0.4561384508
 40
0.7160002049
 40
1.0
 40
1.0
 40
1.0
 40
1.0
 10
190.1522370374714
 20
57.26005516048235
 30
0.0
 10
190.2189690359701
 20
57.26005516048235
 30
0.0
 10
190.3583640812703
 20
57.23107833648237
 30
0.0
 10
190.5428380927715
 20
57.10950416898231
 30
0.0
 10
190.6934370601703
 20
56.92381904018248
 30
0.0
 10
190.7627823593702
 20
56.77252392058244
 30
0.0
 10
190.7903033389703
 20
56.69103403438248
 30
0.0
  0
SPLINE
  5
4DC
330
21
100
AcDbEntity
  8
1
100
AcDbSpline
210
0.0
220
0.0
230
1.0
 70
     8
 71
     3
 72
     9
 73
     5
 74
     0
 42
0.000000001
 43
0.0000000001
 40
0.0
 40
0.0
 40
0.0
 40
0.0
 40
0.2574865501
 40
1.0
 40
1.0
 40
1.0
 40
1.0
 10
190.4717492792715
 20
40.24512641058254
 30
0.0
 10
190.4689506471714
 20
40.22929495668268
 30
0.0
 10
190.4602483445706
 20
40.16746722068274
 30
0.0
 10
190.4601339749715
 20
40.10427386088259
 30
0.0
 10
190.4659975066716
 20
40.05828517778264
 30
0.0
  0
SPLINE
  5
4DD
330
21
100
AcDbEntity
  8
1
100
AcDbSpline
210
0.0
220
0.0
230
1.0
 70
     8
 71
     3
 72
     9
 73
     5
 74
     0
 42
0.000000001
 43
0.0000000001
 40
0.0
 40
0.0
 40
0.0
 40
0.0
 40
0.2542567241
 40
1.0
 40
1.0
 40
1.0
 40
1.0
 10
190.4294384123714
 20
49.47886585218248
 30
0.0
 10
190.422307477771
 20
49.6563559475826
 30
0.0
 10
190.3703426197717
 20
50.35316119278241
 30
0.0
 10
190.2226828804705
 20
51.04363868738255
 30
0.0
 10
190.0559781969714
 20
51.53725286348254
 30
0.0
  0
SPLINE
  5
4DE
330
21
100
AcDbEntity
  8
1
100
AcDbSpline
210
0.0
220
0.0
230
1.0
 70
     8
 71
     3
 72
    11
 73
     7
 74
     0
 42
0.000000001
 43
0.0000000001
 40
0.0
 40
0.0
 40
0.0
 40
0.0
 40
0.2881036865
 40
0.5550261768000001
 40
0.7900658036000001
 40
1.0
 40
1.0
 40
1.0
 40
1.0
 10
152.7400626634717
 20
57.17314363468267
 30
0.0
 10
152.7412326692702
 20
57.2363317100826
 30
0.0
 10
152.7597041376703
 20
57.35851995318262
 30
0.0
 10
152.8344136202704
 20
57.51790575058249
 30
0.0
 10
152.9486778242717
 20
57.6307686633827
 30
0.0
 10
153.0474433836716
 20
57.66005516048244
 30
0.0
 10
153.0934949001712
 20
57.66005516048244
 30
0.0
  0
SPLINE
  5
4DF
330
21
100
AcDbEntity
  8
1
100
AcDbSpline
210
0.0
220
0.0
230
1.0
 70
     8
 71
     3
 72
    11
 73
     7
 74
     0
 42
0.000000001
 43
0.0000000001
 40
0.0
 40
0.0
 40
0.0
 40
0.0
 40
0.2099341964
 40
0.4449738232
 40
0.7118963135
 40
1.0
 40
1.0
 40
1.0
 40
1.0
 10
188.06342931377
 20
57.66005516048244
 30
0.0
 10
188.1094808302714
 20
57.66005516048244
 30
0.0
 10
188.2082463896713
 20
57.6307686633827
 30
0.0
 10
188.3225105936708
 20
57.51790575058249
 30
0.0
 10
188.397220076271
 20
57.35851995318262
 30
0.0
 10
188.4156915446711
 20
57.2363317100826
 30
0.0
 10
188.4168615504714
 20
57.17314363468267
 30
0.0
  0
SPLINE
  5
4E0
330
21
100
AcDbEntity
  8
1
100
AcDbSpline
210
0.0
220
0.0
230
1.0
 70
     8
 71
     3
 72
    11
 73
     7
 74
     0
 42
0.000000001
 43
0.0000000001
 40
0.0
 40
0.0
 40
0.0
 40
0.0
 40
0.2099341967
 40
0.4449738249000001
 40
0.7118963156
 40
1.0
 40
1.0
 40
1.0
 40
1.0
 10
185.5384918336713
 20
57.66005516048244
 30
0.0
 10
185.584543350371
 20
57.66005516048244
 30
0.0
 10
185.6833089104712
 20
57.63076866318261
 30
0.0
 10
185.7975731158713
 20
57.51790575078257
 30
0.0
 10
185.8722826022713
 20
57.35851995428266
 30
0.0
 10
185.8907540672717
 20
57.23633170988251
 30
0.0
 10
185.8919240703708
 20
57.17314363468267
 30
0.0
  0
SPLINE
  5
4E1
330
21
100
AcDbEntity
  8
1
100
AcDbSpline
210
0.0
220
0.0
230
1.0
 70
     8
 71
     3
 72
    18
 73
    14
 74
     0
 42
0.000000001
 43
0.0000000001
 40
0.0
 40
0.0
 40
0.0
 40
0.0
 40
0.0041524551
 40
0.0164982399
 40
0.0370134624
 40
0.0656629697
 40
0.1023953428
 40
0.1471028223
 40
0.2599592042
 40
0.4031898734000001
 40
0.575452526
 40
0.7751585409000001
 40
1.0
 40
1.0
 40
1.0
 40
1.0
 10
147.013244389771
 20
57.17314363468267
 30
0.0
 10
147.0132682637704
 20
57.17395401098247
 30
0.0
 10
147.018364279671
 20
57.17257286558242
 30
0.0
 10
147.023784358671
 20
57.17423881868262
 30
0.0
 10
147.0368174709711
 20
57.17356191678255
 30
0.0
 10
147.0531360342702
 20
57.17407668258238
 30
0.0
 10
147.0748038676702
 20
57.17404567068252
 30
0.0
 10
147.1126558400701
 20
57.17423011588244
 30
0.0
 10
147.1714366250708
 20
57.17422755078269
 30
0.0
 10
147.25504490407
 20
57.17416723618271
 30
0.0
 10
147.3556406743701
 20
57.17394907488233
 30
0.0
 10
147.4721589891706
 20
57.17360891648241
 30
0.0
 10
147.5550480880702
 20
57.17331120598237
 30
0.0
 10
147.59894595267
 20
57.17314287028239
 30
0.0
  0
SPLINE
  5
4E2
330
21
100
AcDbEntity
  8
1
100
AcDbSpline
210
0.0
220
0.0
230
1.0
 70
     8
 71
     3
 72
    18
 73
    14
 74
     0
 42
0.000000001
 43
0.0000000001
 40
0.0
 40
0.0
 40
0.0
 40
0.0
 40
0.2248528368
 40
0.4245533384000001
 40
0.5968142392
 40
0.7400464548000001
 40
0.8529036103000001
 40
0.8976097498000001
 40
0.9343392249
 40
0.9629839987
 40
0.9834948909999999
 40
0.9958403309999999
 40
1.0
 40
1.0
 40
1.0
 40
1.0
 10
193.5580941209701
 20
57.17314363468267
 30
0.0
 10
193.6019855232717
 20
57.17331167148268
 30
0.0
 10
193.6848593491704
 20
57.17360917268252
 30
0.0
 10
193.8013554938716
 20
57.1739495408824
 30
0.0
 10
193.9019300168711
 20
57.17416757168257
 30
0.0
 10
193.9855225170704
 20
57.17422761718262
 30
0.0
 10
194.0442903519706
 20
57.17422981638265
 30
0.0
 10
194.0821364949716
 20
57.17404537808261
 30
0.0
 10
194.1037933378702
 20
57.17407617058234
 30
0.0
 10
194.1201192192711
 20
57.17356223738261
 30
0.0
 10
194.1331186533716
 20
57.17423775698262
 30
0.0
 10
194.1385891233713
 20
57.1725741344826
 30
0.0
 10
194.1436341610715
 20
57.17395432538251
 30
0.0
 10
194.1436798241702
 20
57.17314363468267
 30
0.0
  0
SPLINE
  5
4E3
330
21
100
AcDbEntity
  8
1
100
AcDbSpline
210
0.0
220
0.0
230
1.0
 70
     8
 71
     3
 72
     9
 73
     5
 74
     0
 42
0.000000001
 43
0.0000000001
 40
0.0
 40
0.0
 40
0.0
 40
0.0
 40
0.4717910169
 40
1.0
 40
1.0
 40
1.0
 40
1.0
 10
193.2046618842705
 20
57.66005516048244
 30
0.0
 10
193.2507121182716
 20
57.66005516048244
 30
0.0
 10
193.3493939488708
 20
57.63090076078242
 30
0.0
 10
193.4210759740708
 20
57.55993673658259
 30
0.0
 10
193.4513627721717
 20
57.51821338578247
 30
0.0
  0
SPLINE
  5
4E4
330
21
100
AcDbEntity
  8
1
100
AcDbSpline
210
0.0
220
0.0
230
1.0
 70
     8
 71
     3
 72
     9
 73
     5
 74
     0
 42
0.000000001
 43
0.0000000001
 40
0.0
 40
0.0
 40
0.0
 40
0.0
 40
0.2352395196
 40
1.0
 40
1.0
 40
1.0
 40
1.0
 10
193.4513627721717
 20
57.51821338578247
 30
0.0
 10
193.468146919271
 20
57.49509140188229
 30
0.0
 10
193.5301739343704
 20
57.39011620308247
 30
0.0
 10
193.5563745053714
 20
57.26601345108247
 30
0.0
 10
193.5580941204717
 20
57.17314363478272
 30
0.0
  0
SPLINE
  5
4E5
330
21
100
AcDbEntity
  8
1
100
AcDbSpline
210
0.0
220
0.0
230
1.0
 70
     8
 71
     3
 72
    11
 73
     7
 74
     0
 42
0.000000001
 43
0.0000000001
 40
0.0
 40
0.0
 40
0.0
 40
0.0
 40
0.209934196
 40
0.4449738215
 40
0.7118963113
 40
1.0
 40
1.0
 40
1.0
 40
1.0
 10
147.9522623296707
 20
57.66005516048244
 30
0.0
 10
147.9062108134713
 20
57.66005516048244
 30
0.0
 10
147.8074452546716
 20
57.63076866358233
 30
0.0
 10
147.6931810519709
 20
57.5179057503824
 30
0.0
 10
147.6184715732707
 20
57.35851995208259
 30
0.0
 10
147.6000001014709
 20
57.23633171028268
 30
0.0
 10
147.5988300929712
 20
57.17314363468267
 30
0.0
  0
SPLINE
  5
4E6
330
21
100
AcDbEntity
  8
1
100
AcDbSpline
210
0.0
220
0.0
230
1.0
 70
     8
 71
     3
 72
    11
 73
     7
 74
     0
 42
0.000000001
 43
0.0000000001
 40
0.0
 40
0.0
 40
0.0
 40
0.0
 40
0.2099341964
 40
0.4449738232
 40
0.7118963135
 40
1.0
 40
1.0
 40
1.0
 40
1.0
 10
150.4771998097713
 20
57.66005516048244
 30
0.0
 10
150.4311482932717
 20
57.66005516048244
 30
0.0
 10
150.33238273387
 20
57.6307686633827
 30
0.0
 10
150.2181185298705
 20
57.51790575058249
 30
0.0
 10
150.1434090472703
 20
57.35851995318262
 30
0.0
 10
150.1249375788702
 20
57.2363317100826
 30
0.0
 10
150.1237675730699
 20
57.17314363468267
 30
0.0
  0
SPLINE
  5
4E7
330
21
100
AcDbEntity
  8
1
100
AcDbSpline
210
0.0
220
0.0
230
1.0
 70
     8
 71
     3
 72
    11
 73
     7
 74
     0
 42
0.000000001
 43
0.0000000001
 40
0.0
 40
0.0
 40
0.0
 40
0.0
 40
0.2099341195
 40
0.4449736759000001
 40
0.7118962192
 40
1.0
 40
1.0
 40
1.0
 40
1.0
 10
155.61843238027
 20
57.66005516048244
 30
0.0
 10
155.5723808790717
 20
57.66005516048244
 30
0.0
 10
155.4736153459708
 20
57.63076870158238
 30
0.0
 10
155.3593511197705
 20
57.51790582918238
 30
0.0
 10
155.2846416086704
 20
57.35852001608237
 30
0.0
 10
155.2661701390716
 20
57.2363317331824
 30
0.0
 10
155.2650001430702
 20
57.17314363478272
 30
0.0
  0
SPLINE
  5
4E8
330
21
100
AcDbEntity
  8
1
100
AcDbSpline
210
0.0
220
0.0
230
1.0
 70
     8
 71
     3
 72
    11
 73
     7
 74
     0
 42
0.000000001
 43
0.0000000001
 40
0.0
 40
0.0
 40
0.0
 40
0.0
 40
0.2881036865
 40
0.5550261768000001
 40
0.7900658036000001
 40
1.0
 40
1.0
 40
1.0
 40
1.0
 10
191.0331566408713
 20
57.17314363468267
 30
0.0
 10
191.031986635071
 20
57.2363317100826
 30
0.0
 10
191.0135151666709
 20
57.35851995318262
 30
0.0
 10
190.9388056840708
 20
57.51790575058249
 30
0.0
 10
190.8245414800713
 20
57.6307686633827
 30
0.0
 10
190.7257759206714
 20
57.66005516048244
 30
0.0
 10
190.67972440417
 20
57.66005516048244
 30
0.0
  0
SPLINE
  5
4E9
330
21
100
AcDbEntity
  8
1
100
AcDbSpline
210
0.0
220
0.0
230
1.0
 70
     8
 71
     3
 72
     9
 73
     5
 74
     0
 42
0.000000001
 43
0.0000000001
 40
0.0
 40
0.0
 40
0.0
 40
0.0
 40
0.2340396101
 40
1.0
 40
1.0
 40
1.0
 40
1.0
 10
150.9434048595704
 20
212.0879587838826
 30
0.0
 10
150.9506513060714
 20
212.0669725106827
 30
0.0
 10
150.9745376137707
 20
211.9748816706824
 30
0.0
 10
150.9722216259706
 20
211.8771229555823
 30
0.0
 10
150.9595726708703
 20
211.8055696603824
 30
0.0
  0
SPLINE
  5
4EA
330
21
100
AcDbEntity
  8
1
100
AcDbSpline
210
0.0
220
0.0
230
1.0
 70
     8
 71
     3
 72
     9
 73
     5
 74
     0
 42
0.000000001
 43
0.0000000001
 40
0.0
 40
0.0
 40
0.0
 40
0.0
 40
0.2452389101
 40
1.0
 40
1.0
 40
1.0
 40
1.0
 10
151.3501721413704
 20
200.8006162380825
 30
0.0
 10
151.3003324819711
 20
200.9481919502823
 30
0.0
 10
151.1201426140706
 20
201.5575758450823
 30
0.0
 10
151.0299075369712
 20
202.1928739606828
 30
0.0
 10
151.010662854671
 20
202.6718771573824
 30
0.0
  0
SPLINE
  5
4EB
330
21
100
AcDbEntity
  8
1
100
AcDbSpline
210
0.0
220
0.0
230
1.0
 70
     8
 71
     3
 72
     9
 73
     5
 74
     0
 42
0.000000001
 43
0.0000000001
 40
0.0
 40
0.0
 40
0.0
 40
0.0
 40
0.2452389101
 40
1.0
 40
1.0
 40
1.0
 40
1.0
 10
148.6260722828702
 20
200.6104574574829
 30
0.0
 10
148.5712486574703
 20
200.7727907409826
 30
0.0
 10
148.373039802771
 20
201.4431130252824
 30
0.0
 10
148.2737812179712
 20
202.1419409524824
 30
0.0
 10
148.2526120673701
 20
202.6688444687825
 30
0.0
  0
SPLINE
  5
4EC
330
21
100
AcDbEntity
  8
1
100
AcDbSpline
210
0.0
220
0.0
230
1.0
 70
     8
 71
     3
 72
    11
 73
     7
 74
     0
 42
0.000000001
 43
0.0000000001
 40
0.0
 40
0.0
 40
0.0
 40
0.0
 40
0.2203407492
 40
0.4561384508
 40
0.7160002049
 40
1.0
 40
1.0
 40
1.0
 40
1.0
 10
151.0046871764716
 20
194.8876551604826
 30
0.0
 10
150.9379551779712
 20
194.8876551604826
 30
0.0
 10
150.7985601326709
 20
194.9166319844826
 30
0.0
 10
150.6140861211716
 20
195.0382061519826
 30
0.0
 10
150.463487153771
 20
195.2238912807825
 30
0.0
 10
150.394141854571
 20
195.3751864003825
 30
0.0
 10
150.366620874971
 20
195.4566762865825
 30
0.0
  0
SPLINE
  5
4ED
330
21
100
AcDbEntity
  8
1
100
AcDbSpline
210
0.0
220
0.0
230
1.0
 70
     8
 71
     3
 72
     9
 73
     5
 74
     0
 42
0.000000001
 43
0.0000000001
 40
0.0
 40
0.0
 40
0.0
 40
0.0
 40
0.2574865501
 40
1.0
 40
1.0
 40
1.0
 40
1.0
 10
150.6851749346715
 20
211.9025839103824
 30
0.0
 10
150.6879735667717
 20
211.9184153642827
 30
0.0
 10
150.6966758693707
 20
211.9802431002827
 30
0.0
 10
150.6967902389715
 20
212.0434364600824
 30
0.0
 10
150.6909267072715
 20
212.0894251431828
 30
0.0
  0
SPLINE
  5
4EE
330
21
100
AcDbEntity
  8
1
100
AcDbSpline
210
0.0
220
0.0
230
1.0
 70
     8
 71
     3
 72
     9
 73
     5
 74
     0
 42
0.000000001
 43
0.0000000001
 40
0.0
 40
0.0
 40
0.0
 40
0.0
 40
0.2542567241
 40
1.0
 40
1.0
 40
1.0
 40
1.0
 10
150.7274858015717
 20
202.6688444687825
 30
0.0
 10
150.7346167361702
 20
202.4913543733828
 30
0.0
 10
150.7865815941714
 20
201.7945491281826
 30
0.0
 10
150.9342413334707
 20
201.1040716335829
 30
0.0
 10
151.1009460169716
 20
200.6104574574829
 30
0.0
  0
SPLINE
  5
4EF
330
21
100
AcDbEntity
  8
1
100
AcDbSpline
210
0.0
220
0.0
230
1.0
 70
     8
 71
     3
 72
     9
 73
     5
 74
     0
 42
0.000000001
 43
0.0000000001
 40
0.0
 40
0.0
 40
0.0
 40
0.0
 40
0.2542567241
 40
1.0
 40
1.0
 40
1.0
 40
1.0
 10
190.1462613592703
 20
202.6718771573824
 30
0.0
 10
190.1397786913712
 20
202.5105225251828
 30
0.0
 10
190.0925379114706
 20
201.8770632113828
 30
0.0
 10
189.9583017848709
 20
201.2493563980825
 30
0.0
 10
189.8067520725708
 20
200.8006162380825
 30
0.0
  0
SPLINE
  5
4F0
330
21
100
AcDbEntity
  8
1
100
AcDbSpline
210
0.0
220
0.0
230
1.0
 70
     8
 71
     3
 72
    11
 73
     7
 74
     0
 42
0.000000001
 43
0.0000000001
 40
0.0
 40
0.0
 40
0.0
 40
0.0
 40
0.2839997951
 40
0.5438615492000001
 40
0.7796592508
 40
1.0
 40
1.0
 40
1.0
 40
1.0
 10
190.7903033389703
 20
195.4566762865825
 30
0.0
 10
190.7627823593702
 20
195.3751864003825
 30
0.0
 10
190.6934370601703
 20
195.2238912807825
 30
0.0
 10
190.5428380927715
 20
195.0382061519826
 30
0.0
 10
190.3583640812703
 20
194.9166319844826
 30
0.0
 10
190.2189690359701
 20
194.8876551604826
 30
0.0
 10
190.1522370374714
 20
194.8876551604826
 30
0.0
  0
SPLINE
  5
4F1
330
21
100
AcDbEntity
  8
1
100
AcDbSpline
210
0.0
220
0.0
230
1.0
 70
     8
 71
     3
 72
     9
 73
     5
 74
     0
 42
0.000000001
 43
0.0000000001
 40
0.0
 40
0.0
 40
0.0
 40
0.0
 40
0.2542567241
 40
1.0
 40
1.0
 40
1.0
 40
1.0
 10
192.9043121465711
 20
202.6688444687825
 30
0.0
 10
192.8971812118707
 20
202.4913543733828
 30
0.0
 10
192.8452163539714
 20
201.7945491281826
 30
0.0
 10
192.6975566146702
 20
201.1040716335829
 30
0.0
 10
192.5308519310711
 20
200.6104574574829
 30
0.0
  0
SPLINE
  5
4F2
330
21
100
AcDbEntity
  8
1
100
AcDbSpline
210
0.0
220
0.0
230
1.0
 70
     8
 71
     3
 72
     9
 73
     5
 74
     0
 42
0.000000001
 43
0.0000000001
 40
0.0
 40
0.0
 40
0.0
 40
0.0
 40
0.2653823593
 40
1.0
 40
1.0
 40
1.0
 40
1.0
 10
190.1973515430709
 20
211.8055696603824
 30
0.0
 10
190.1929713676709
 20
211.830347673982
 30
0.0
 10
190.1815620656707
 20
211.9243851233823
 30
0.0
 10
190.1907857557708
 20
212.0221205127827
 30
0.0
 10
190.2135193543709
 20
212.0879587838826
 30
0.0
  0
SPLINE
  5
4F3
330
21
100
AcDbEntity
  8
1
100
AcDbSpline
210
0.0
220
0.0
230
1.0
 70
     8
 71
     3
 72
     9
 73
     5
 74
     0
 42
0.000000001
 43
0.0000000001
 40
0.0
 40
0.0
 40
0.0
 40
0.0
 40
0.2452389101
 40
1.0
 40
1.0
 40
1.0
 40
1.0
 10
190.0559781969714
 20
200.6104574574829
 30
0.0
 10
190.1108018222712
 20
200.7727907409826
 30
0.0
 10
190.3090106770705
 20
201.4431130252824
 30
0.0
 10
190.4082692618704
 20
202.1419409524824
 30
0.0
 10
190.4294384123714
 20
202.6688444687825
 30
0.0
  0
SPLINE
  5
4F4
330
21
100
AcDbEntity
  8
1
100
AcDbSpline
210
0.0
220
0.0
230
1.0
 70
     8
 71
     3
 72
     9
 73
     5
 74
     0
 42
0.000000001
 43
0.0000000001
 40
0.0
 40
0.0
 40
0.0
 40
0.0
 40
0.2417235607
 40
1.0
 40
1.0
 40
1.0
 40
1.0
 10
190.4659975066716
 20
212.0894251431828
 30
0.0
 10
190.4640884458713
 20
212.0744520519829
 30
0.0
 10
190.4588266431711
 20
212.0121854111821
 30
0.0
 10
190.4635066709707
 20
211.9492111440823
 30
0.0
 10
190.4717492792715
 20
211.9025839103824
 30
0.0
  0
SPLINE
  5
4F5
330
21
100
AcDbEntity
  8
1
100
AcDbSpline
210
0.0
220
0.0
230
1.0
 70
     8
 71
     3
 72
    11
 73
     7
 74
     0
 42
0.000000001
 43
0.0000000001
 40
0.0
 40
0.0
 40
0.0
 40
0.0
 40
0.2099341964
 40
0.4449738232
 40
0.7118963135
 40
1.0
 40
1.0
 40
1.0
 40
1.0
 10
153.0934949001712
 20
194.4876551604825
 30
0.0
 10
153.0474433836716
 20
194.4876551604825
 30
0.0
 10
152.9486778242717
 20
194.5169416575823
 30
0.0
 10
152.8344136202704
 20
194.6298045703825
 30
0.0
 10
152.7597041376703
 20
194.7891903677823
 30
0.0
 10
152.7412326692702
 20
194.9113786108824
 30
0.0
 10
152.7400626634717
 20
194.9745666862827
 30
0.0
  0
SPLINE
  5
4F6
330
21
100
AcDbEntity
  8
1
100
AcDbSpline
210
0.0
220
0.0
230
1.0
 70
     8
 71
     3
 72
    11
 73
     7
 74
     0
 42
0.000000001
 43
0.0000000001
 40
0.0
 40
0.0
 40
0.0
 40
0.0
 40
0.2881036865
 40
0.5550261768000001
 40
0.7900658036000001
 40
1.0
 40
1.0
 40
1.0
 40
1.0
 10
188.4168615504714
 20
194.9745666862827
 30
0.0
 10
188.4156915446711
 20
194.9113786108824
 30
0.0
 10
188.397220076271
 20
194.7891903677823
 30
0.0
 10
188.3225105936708
 20
194.6298045703825
 30
0.0
 10
188.2082463896713
 20
194.5169416575823
 30
0.0
 10
188.1094808302714
 20
194.4876551604825
 30
0.0
 10
188.06342931377
 20
194.4876551604825
 30
0.0
  0
SPLINE
  5
4F7
330
21
100
AcDbEntity
  8
1
100
AcDbSpline
210
0.0
220
0.0
230
1.0
 70
     8
 71
     3
 72
    18
 73
    14
 74
     0
 42
0.000000001
 43
0.0000000001
 40
0.0
 40
0.0
 40
0.0
 40
0.0
 40
0.0041524551
 40
0.0164982399
 40
0.0370134624
 40
0.0656629697
 40
0.1023953428
 40
0.1471028223
 40
0.2599592042
 40
0.4031898734000001
 40
0.575452526
 40
0.7751585409000001
 40
1.0
 40
1.0
 40
1.0
 40
1.0
 10
194.1436798241702
 20
194.9745666862827
 30
0.0
 10
194.1436559501708
 20
194.9737563099825
 30
0.0
 10
194.1385599342702
 20
194.9751374553825
 30
0.0
 10
194.1331398552702
 20
194.9734715022823
 30
0.0
 10
194.1201067429702
 20
194.9741484041824
 30
0.0
 10
194.103788179671
 20
194.9736336383826
 30
0.0
 10
194.082120346271
 20
194.9736646502824
 30
0.0
 10
194.0442683738711
 20
194.9734802050825
 30
0.0
 10
193.9854875888705
 20
194.9734827701827
 30
0.0
 10
193.9018793098712
 20
194.9735430847827
 30
0.0
 10
193.8012835395712
 20
194.9737612460826
 30
0.0
 10
193.6847652247707
 20
194.9741014044826
 30
0.0
 10
193.6018761258711
 20
194.9743991149826
 30
0.0
 10
193.5579782612713
 20
194.9745674506826
 30
0.0
  0
SPLINE
  5
4F8
330
21
100
AcDbEntity
  8
1
100
AcDbSpline
210
0.0
220
0.0
230
1.0
 70
     8
 71
     3
 72
    18
 73
    14
 74
     0
 42
0.000000001
 43
0.0000000001
 40
0.0
 40
0.0
 40
0.0
 40
0.0
 40
0.2248528368
 40
0.4245533384000001
 40
0.5968142392
 40
0.7400464548000001
 40
0.8529036103000001
 40
0.8976097498000001
 40
0.9343392249
 40
0.9629839987
 40
0.9834948909999999
 40
0.9958403309999999
 40
1.0
 40
1.0
 40
1.0
 40
1.0
 10
147.5988300929712
 20
194.9745666862827
 30
0.0
 10
147.5549386906714
 20
194.9743986494823
 30
0.0
 10
147.4720648647708
 20
194.9741011482824
 30
0.0
 10
147.3555687200715
 20
194.9737607800826
 30
0.0
 10
147.2549941970701
 20
194.9735427492824
 30
0.0
 10
147.1714016968708
 20
194.9734827037823
 30
0.0
 10
147.1126338619706
 20
194.9734805045828
 30
0.0
 10
147.0747877189715
 20
194.9736649428824
 30
0.0
 10
147.053130876071
 20
194.9736341503826
 30
0.0
 10
147.0368049946701
 20
194.9741480835823
 30
0.0
 10
147.0238055605714
 20
194.9734725639823
 30
0.0
 10
147.0183350905718
 20
194.9751361864824
 30
0.0
 10
147.0132900528715
 20
194.9737559955825
 30
0.0
 10
147.013244389771
 20
194.9745666862827
 30
0.0
  0
SPLINE
  5
4F9
330
21
100
AcDbEntity
  8
1
100
AcDbSpline
210
0.0
220
0.0
230
1.0
 70
     8
 71
     3
 72
    11
 73
     7
 74
     0
 42
0.000000001
 43
0.0000000001
 40
0.0
 40
0.0
 40
0.0
 40
0.0
 40
0.2099341967
 40
0.4449738249000001
 40
0.7118963156
 40
1.0
 40
1.0
 40
1.0
 40
1.0
 10
155.61843238027
 20
194.4876551604825
 30
0.0
 10
155.5723808635703
 20
194.4876551604825
 30
0.0
 10
155.4736153034701
 20
194.5169416577824
 30
0.0
 10
155.35935109807
 20
194.6298045701824
 30
0.0
 10
155.2846416116699
 20
194.7891903666823
 30
0.0
 10
155.2661701466714
 20
194.9113786110825
 30
0.0
 10
155.2650001435704
 20
194.9745666862827
 30
0.0
  0
SPLINE
  5
4FA
330
21
100
AcDbEntity
  8
1
100
AcDbSpline
210
0.0
220
0.0
230
1.0
 70
     8
 71
     3
 72
    11
 73
     7
 74
     0
 42
0.000000001
 43
0.0000000001
 40
0.0
 40
0.0
 40
0.0
 40
0.0
 40
0.2099341195
 40
0.4449736759000001
 40
0.7118962192
 40
1.0
 40
1.0
 40
1.0
 40
1.0
 10
185.5384918336713
 20
194.4876551604825
 30
0.0
 10
185.5845433348713
 20
194.4876551604825
 30
0.0
 10
185.6833088679705
 20
194.5169416193826
 30
0.0
 10
185.7975730941707
 20
194.6298044917826
 30
0.0
 10
185.8722826052708
 20
194.7891903048826
 30
0.0
 10
185.8907540748714
 20
194.9113785877826
 30
0.0
 10
185.891924070871
 20
194.9745666861827
 30
0.0
  0
SPLINE
  5
4FB
330
21
100
AcDbEntity
  8
1
100
AcDbSpline
210
0.0
220
0.0
230
1.0
 70
     8
 71
     3
 72
    11
 73
     7
 74
     0
 42
0.000000001
 43
0.0000000001
 40
0.0
 40
0.0
 40
0.0
 40
0.0
 40
0.2099341964
 40
0.4449738232
 40
0.7118963135
 40
1.0
 40
1.0
 40
1.0
 40
1.0
 10
190.67972440417
 20
194.4876551604825
 30
0.0
 10
190.7257759206714
 20
194.4876551604825
 30
0.0
 10
190.8245414800713
 20
194.5169416575823
 30
0.0
 10
190.9388056840708
 20
194.6298045703825
 30
0.0
 10
191.0135151666709
 20
194.7891903677823
 30
0.0
 10
191.031986635071
 20
194.9113786108824
 30
0.0
 10
191.0331566408713
 20
194.9745666862827
 30
0.0
  0
SPLINE
  5
4FC
330
21
100
AcDbEntity
  8
1
100
AcDbSpline
210
0.0
220
0.0
230
1.0
 70
     8
 71
     3
 72
     9
 73
     5
 74
     0
 42
0.000000001
 43
0.0000000001
 40
0.0
 40
0.0
 40
0.0
 40
0.0
 40
0.4717899929
 40
1.0
 40
1.0
 40
1.0
 40
1.0
 10
193.2046618842705
 20
194.4876551604825
 30
0.0
 10
193.2507134002717
 20
194.4876551604825
 30
0.0
 10
193.3493981970714
 20
194.5168113398827
 30
0.0
 10
193.4210811241701
 20
194.5877789040824
 30
0.0
 10
193.4513680637701
 20
194.6295041875824
 30
0.0
  0
SPLINE
  5
4FD
330
21
100
AcDbEntity
  8
1
100
AcDbSpline
210
0.0
220
0.0
230
1.0
 70
     8
 71
     3
 72
     9
 73
     5
 74
     0
 42
0.000000001
 43
0.0000000001
 40
0.0
 40
0.0
 40
0.0
 40
0.0
 40
0.2352402501
 40
1.0
 40
1.0
 40
1.0
 40
1.0
 10
193.4513680637701
 20
194.6295041875824
 30
0.0
 10
193.4681514009717
 20
194.6526260188825
 30
0.0
 10
193.5301752318701
 20
194.7575996372825
 30
0.0
 10
193.5563745599702
 20
194.8816991943827
 30
0.0
 10
193.5580941209701
 20
194.9745666862827
 30
0.0
  0
SPLINE
  5
4FE
330
21
100
AcDbEntity
  8
1
100
AcDbSpline
210
0.0
220
0.0
230
1.0
 70
     8
 71
     3
 72
    11
 73
     7
 74
     0
 42
0.000000001
 43
0.0000000001
 40
0.0
 40
0.0
 40
0.0
 40
0.0
 40
0.2881036865
 40
0.5550261768000001
 40
0.7900658036000001
 40
1.0
 40
1.0
 40
1.0
 40
1.0
 10
150.1237675730699
 20
194.9745666862827
 30
0.0
 10
150.1249375788702
 20
194.9113786108824
 30
0.0
 10
150.1434090472703
 20
194.7891903677823
 30
0.0
 10
150.2181185298705
 20
194.6298045703825
 30
0.0
 10
150.33238273387
 20
194.5169416575823
 30
0.0
 10
150.4311482932717
 20
194.4876551604825
 30
0.0
 10
150.4771998097713
 20
194.4876551604825
 30
0.0
  0
SPLINE
  5
4FF
330
21
100
AcDbEntity
  8
1
100
AcDbSpline
210
0.0
220
0.0
230
1.0
 70
     8
 71
     3
 72
    11
 73
     7
 74
     0
 42
0.000000001
 43
0.0000000001
 40
0.0
 40
0.0
 40
0.0
 40
0.0
 40
0.2099340712
 40
0.4449736221000001
 40
0.7118961906
 40
1.0
 40
1.0
 40
1.0
 40
1.0
 10
147.9522623296707
 20
194.4876551604825
 30
0.0
 10
147.9062108419712
 20
194.4876551604825
 30
0.0
 10
147.80744532887
 20
194.5169416280823
 30
0.0
 10
147.6931811297709
 20
194.6298045004824
 30
0.0
 10
147.6184716094704
 20
194.7891903051827
 30
0.0
 10
147.600000109871
 20
194.9113785857826
 30
0.0
 10
147.5988300934714
 20
194.9745666861827
 30
0.0
  0
ELLIPSE
  5
500
330
21
100
AcDbEntity
  8
1
100
AcDbEllipse
 10
346.8348851919709
 20
114.1122491073825
 30
0.0
 11
1.848501115
 21
0.7656742319000006
 31
0.0
210
0.0
220
0.0
230
1.0
 40
0.9995985666000001
 41
2.749035508399999
 42
3.5341497988
  0
ELLIPSE
  5
501
330
21
100
AcDbEntity
  8
1
100
AcDbEllipse
 10
354.7842310538708
 20
106.1629032454825
 30
0.0
 11
0.7656742319000006
 21
1.848501115
 31
0.0
210
0.0
220
0.0
230
1.0
 40
0.9995985666000001
 41
-3.5341497988
 42
-2.749035508399999
  0
ELLIPSE
  5
502
330
21
100
AcDbEntity
  8
1
100
AcDbEllipse
 10
382.9841681600701
 20
106.1629032454825
 30
0.0
 11
-0.7656742319000006
 21
1.848501115
 31
0.0
210
0.0
220
0.0
230
1.0
 40
0.9995985666000001
 41
-3.5341497988
 42
-2.749035508399999
  0
ELLIPSE
  5
503
330
21
100
AcDbEntity
  8
1
100
AcDbEllipse
 10
390.93351402197
 20
114.1122491073825
 30
0.0
 11
1.848501115
 21
-0.7656742319000006
 31
0.0
210
0.0
220
0.0
230
1.0
 40
0.9995985666000001
 41
-0.3925571452
 42
0.3925571452
  0
ELLIPSE
  5
504
330
21
100
AcDbEntity
  8
1
100
AcDbEllipse
 10
390.93351402197
 20
142.3121862135827
 30
0.0
 11
1.848501115
 21
0.7656742319000006
 31
0.0
210
0.0
220
0.0
230
1.0
 40
0.9995985666000001
 41
-0.3925571452
 42
0.3925571452
  0
ELLIPSE
  5
505
330
21
100
AcDbEntity
  8
1
100
AcDbEllipse
 10
382.9841681600701
 20
150.2615320754826
 30
0.0
 11
0.7656742319000006
 21
1.848501115
 31
0.0
210
0.0
220
0.0
230
1.0
 40
0.9995985666000001
 41
-0.3925571452
 42
0.3925571452
  0
ELLIPSE
  5
506
330
21
100
AcDbEntity
  8
1
100
AcDbEllipse
 10
354.7842310538708
 20
150.2615320754826
 30
0.0
 11
-0.7656742319000006
 21
1.848501115
 31
0.0
210
0.0
220
0.0
230
1.0
 40
0.9995985666000001
 41
-0.3925571452
 42
0.3925571452
  0
ELLIPSE
  5
507
330
21
100
AcDbEntity
  8
1
100
AcDbEllipse
 10
346.8348851919709
 20
142.3121862135827
 30
0.0
 11
1.848501115
 21
-0.7656742319000006
 31
0.0
210
0.0
220
0.0
230
1.0
 40
0.9995985666000001
 41
2.749035508399999
 42
3.5341497988
  0
ELLIPSE
  5
508
330
21
100
AcDbEntity
  8
1
100
AcDbEllipse
 10
362.8587762044699
 20
105.1468286057825
 30
0.0
 11
0.0
 21
0.5
 31
0.0
210
0.0
220
0.0
230
1.0
 40
0.0174550649
 41
-4.7123889804
 42
-3.167772592399999
  0
ELLIPSE
  5
509
330
21
100
AcDbEntity
  8
1
100
AcDbEllipse
 10
374.909623009471
 20
105.1468286057825
 30
0.0
 11
0.0
 21
0.5
 31
0.0
210
0.0
220
0.0
230
1.0
 40
0.0174550649
 41
-3.1154127148
 42
-1.5707963268
  0
ARC
  5
50A
330
21
100
AcDbEntity
  8
C
100
AcDbCircle
 10
368.8841996069714
 20
119.6431243444827
 30
0.0
 40
21.75
100
AcDbArc
 50
260.8451121351032
 51
278.5936225986974
  0
ARC
  5
50F
330
21
100
AcDbEntity
  8
C
100
AcDbCircle
 10
377.4532929229717
 20
128.2122176604826
 30
0.0
 40
21.75
100
AcDbArc
 50
350.8451121350997
 51
8.593622598699788
  0
ARC
  5
510
330
21
100
AcDbEntity
  8
C
100
AcDbCircle
 10
368.8841996069714
 20
136.7813109764825
 30
0.0
 40
21.75
100
AcDbArc
 50
81.40637740130259
 51
99.15488786490666
  0
ARC
  5
511
330
21
100
AcDbEntity
  8
C
100
AcDbCircle
 10
360.315106290971
 20
128.2122176604826
 30
0.0
 40
21.75
100
AcDbArc
 50
171.4063774013002
 51
189.1548878648991
  0
LINE
  5
512
330
21
100
AcDbEntity
  8
C
100
AcDbLine
 10
328.3841996069714
 20
128.2122176604826
 30
0.0
 11
409.3841996069714
 21
128.2122176604826
 31
0.0
  0
LINE
  5
513
330
21
100
AcDbEntity
  8
C
100
AcDbLine
 10
368.8841996069714
 20
169.0622176604825
 30
0.0
 11
368.8841996069714
 21
87.36221766048266
 31
0.0
  0
DIMENSION
  5
514
330
21
100
AcDbEntity
  8
D
100
AcDbDimension
  2
*D239
 10
435.4653584947682
 20
97.89312434448266
 30
0.0
 11
429.5903584947682
 21
128.2122176604826
 31
0.0
 70
    32
 71
     5
 42
60.63818663199982
  3
Copy(2) of STANDRAD
100
AcDbAlignedDimension
 13
368.8841996069714
 23
158.5313109764825
 33
0.0
 14
368.8841996069714
 24
97.89312434448266
 34
0.0
 50
90.0
100
AcDbRotatedDimension
  0
DIMENSION
  5
52B
330
21
100
AcDbEntity
  8
D
100
AcDbDimension
  2
*D240
 10
338.565106290971
 20
183.1242867767487
 30
0.0
 11
368.8841996069714
 21
188.9992867767487
 31
0.0
 70
    32
 71
     5
 42
60.63818663200072
  3
Copy(2) of STANDRAD
100
AcDbAlignedDimension
 13
399.2032929229717
 23
128.2122176604826
 33
0.0
 14
338.565106290971
 24
128.2122176604826
 34
0.0
100
AcDbRotatedDimension
  0
DIMENSION
  5
538
330
21
100
AcDbEntity
  8
1
100
AcDbDimension
  2
*D241
 10
210.5784621069706
 20
70.95839732261584
 30
0.0
 11
170.5784621069706
 21
76.83339732261584
 31
0.0
 70
    32
 71
     5
 42
80.0
  3
Copy(2) of STANDRAD
100
AcDbAlignedDimension
 13
130.5784621069706
 23
88.71221766048257
 33
0.0
 14
210.5784621069706
 24
88.71221766048257
 34
0.0
100
AcDbRotatedDimension
  0
DIMENSION
  5
545
330
21
100
AcDbEntity
  8
1
100
AcDbDimension
  2
*D242
 10
230.6198976869
 20
88.21221766048257
 30
0.0
 11
224.7448976869
 21
128.2122176604826
 31
0.0
 70
    32
 71
     5
 42
80.0
  3
Copy(2) of STANDRAD
100
AcDbAlignedDimension
 13
210.0784621069706
 23
168.2122176604826
 33
0.0
 14
210.0784621069706
 24
88.21221766048257
 34
0.0
 50
90.0
100
AcDbRotatedDimension
  0
DIMENSION
  5
552
330
21
100
AcDbEntity
  8
1
100
AcDbDimension
  2
*D243
 10
283.7527996069712
 20
70.95839732261584
 30
0.0
 11
239.4673035439791
 21
70.95839732261584
 31
0.0
 70
   160
 71
     5
 42
17.60000000000036
  3
Copy(2) of STANDRAD
100
AcDbAlignedDimension
 13
266.1527996069708
 23
105.1468286057825
 33
0.0
 14
283.7527996069712
 24
88.21221766048257
 34
0.0
100
AcDbRotatedDimension
  0
LINE
  5
560
330
21
100
AcDbEntity
  8
1
100
AcDbLine
 10
293.5027996069712
 20
165.2122176604826
 30
0.0
 11
293.5027996069712
 21
128.8622176604827
 31
0.0
  0
LINE
  5
561
330
21
100
AcDbEntity
  8
1
100
AcDbLine
 10
293.5027996069712
 20
127.5622176604825
 30
0.0
 11
293.5027996069712
 21
91.21221766048257
 31
0.0
  0
LINE
  5
562
330
21
100
AcDbEntity
  8
1
100
AcDbLine
 10
293.0027996069712
 20
165.7122176604826
 30
0.0
 11
293.0027996069712
 21
128.3622176604827
 31
0.0
  0
LINE
  5
563
330
21
100
AcDbEntity
  8
1
100
AcDbLine
 10
293.0027996069712
 20
128.0622176604825
 30
0.0
 11
293.0027996069712
 21
91.21221766048257
 31
0.0
  0
LINE
  5
564
330
21
100
AcDbEntity
  8
1
100
AcDbLine
 10
293.0027996069712
 20
165.7122176604826
 30
0.0
 11
292.7527996069712
 21
165.7122176604826
 31
0.0
  0
LINE
  5
565
330
21
100
AcDbEntity
  8
1
100
AcDbLine
 10
293.5027996069712
 20
165.2122176604826
 30
0.0
 11
292.7527996069712
 21
165.2122176604826
 31
0.0
  0
LINE
  5
566
330
21
100
AcDbEntity
  8
1
100
AcDbLine
 10
293.0027996069712
 20
165.7122176604826
 30
0.0
 11
293.5027996069712
 21
165.2122176604826
 31
0.0
  0
LINE
  5
567
330
21
100
AcDbEntity
  8
1
100
AcDbLine
 10
293.5027996069712
 20
128.8622176604827
 30
0.0
 11
292.7527996069712
 21
128.8622176604827
 31
0.0
  0
LINE
  5
568
330
21
100
AcDbEntity
  8
1
100
AcDbLine
 10
293.0027996069712
 20
128.3622176604827
 30
0.0
 11
293.5027996069712
 21
128.8622176604827
 31
0.0
  0
LINE
  5
569
330
21
100
AcDbEntity
  8
1
100
AcDbLine
 10
293.0027996069712
 20
128.3622176604827
 30
0.0
 11
292.7527996069712
 21
128.3622176604827
 31
0.0
  0
LINE
  5
56A
330
21
100
AcDbEntity
  8
1
100
AcDbLine
 10
293.5027996069712
 20
127.5622176604825
 30
0.0
 11
292.7527996069712
 21
127.5622176604825
 31
0.0
  0
LINE
  5
56B
330
21
100
AcDbEntity
  8
1
100
AcDbLine
 10
293.0027996069712
 20
128.0622176604825
 30
0.0
 11
293.5027996069712
 21
127.5622176604825
 31
0.0
  0
LINE
  5
56C
330
21
100
AcDbEntity
  8
1
100
AcDbLine
 10
293.0027996069712
 20
128.0622176604825
 30
0.0
 11
292.7527996069712
 21
128.0622176604825
 31
0.0
  0
LINE
  5
56D
330
21
100
AcDbEntity
  8
1
100
AcDbLine
 10
293.5027996069712
 20
91.21221766048257
 30
0.0
 11
292.7527996069712
 21
91.21221766048257
 31
0.0
  0
LINE
  5
56E
330
21
100
AcDbEntity
  8
1
100
AcDbLine
 10
293.0027996069712
 20
90.71221766048257
 30
0.0
 11
293.5027996069712
 21
91.21221766048257
 31
0.0
  0
LINE
  5
56F
330
21
100
AcDbEntity
  8
1
100
AcDbLine
 10
293.0027996069712
 20
90.71221766048257
 30
0.0
 11
292.7527996069712
 21
90.71221766048257
 31
0.0
  0
LINE
  5
570
330
21
100
AcDbEntity
  8
1
100
AcDbLine
 10
65.09439960697091
 20
165.2122176604826
 30
0.0
 11
65.09439960697091
 21
128.8622176604827
 31
0.0
  0
LINE
  5
571
330
21
100
AcDbEntity
  8
1
100
AcDbLine
 10
65.09439960697091
 20
127.5622176604825
 30
0.0
 11
65.09439960697091
 21
91.21221766048257
 31
0.0
  0
LINE
  5
572
330
21
100
AcDbEntity
  8
1
100
AcDbLine
 10
65.59439960697091
 20
165.7122176604826
 30
0.0
 11
65.59439960697091
 21
128.3622176604827
 31
0.0
  0
LINE
  5
573
330
21
100
AcDbEntity
  8
1
100
AcDbLine
 10
65.59439960697091
 20
128.0622176604825
 30
0.0
 11
65.59439960697091
 21
91.21221766048257
 31
0.0
  0
LINE
  5
574
330
21
100
AcDbEntity
  8
1
100
AcDbLine
 10
65.59439960697091
 20
165.7122176604826
 30
0.0
 11
65.84439960697091
 21
165.7122176604826
 31
0.0
  0
LINE
  5
575
330
21
100
AcDbEntity
  8
1
100
AcDbLine
 10
65.09439960697091
 20
165.2122176604826
 30
0.0
 11
65.84439960697091
 21
165.2122176604826
 31
0.0
  0
LINE
  5
576
330
21
100
AcDbEntity
  8
1
100
AcDbLine
 10
65.59439960697091
 20
165.7122176604826
 30
0.0
 11
65.09439960697091
 21
165.2122176604826
 31
0.0
  0
LINE
  5
577
330
21
100
AcDbEntity
  8
1
100
AcDbLine
 10
65.09439960697091
 20
128.8622176604827
 30
0.0
 11
65.84439960697091
 21
128.8622176604827
 31
0.0
  0
LINE
  5
578
330
21
100
AcDbEntity
  8
1
100
AcDbLine
 10
65.59439960697091
 20
128.3622176604827
 30
0.0
 11
65.09439960697091
 21
128.8622176604827
 31
0.0
  0
LINE
  5
579
330
21
100
AcDbEntity
  8
1
100
AcDbLine
 10
65.59439960697091
 20
128.3622176604827
 30
0.0
 11
65.84439960697091
 21
128.3622176604827
 31
0.0
  0
LINE
  5
57A
330
21
100
AcDbEntity
  8
1
100
AcDbLine
 10
65.09439960697091
 20
127.5622176604825
 30
0.0
 11
65.84439960697091
 21
127.5622176604825
 31
0.0
  0
LINE
  5
57B
330
21
100
AcDbEntity
  8
1
100
AcDbLine
 10
65.59439960697091
 20
128.0622176604825
 30
0.0
 11
65.09439960697091
 21
127.5622176604825
 31
0.0
  0
LINE
  5
57C
330
21
100
AcDbEntity
  8
1
100
AcDbLine
 10
65.59439960697091
 20
128.0622176604825
 30
0.0
 11
65.84439960697091
 21
128.0622176604825
 31
0.0
  0
LINE
  5
57D
330
21
100
AcDbEntity
  8
1
100
AcDbLine
 10
65.09439960697091
 20
91.21221766048257
 30
0.0
 11
65.84439960697091
 21
91.21221766048257
 31
0.0
  0
LINE
  5
57E
330
21
100
AcDbEntity
  8
1
100
AcDbLine
 10
65.59439960697091
 20
90.71221766048257
 30
0.0
 11
65.09439960697091
 21
91.21221766048257
 31
0.0
  0
LINE
  5
57F
330
21
100
AcDbEntity
  8
1
100
AcDbLine
 10
65.59439960697091
 20
90.71221766048257
 30
0.0
 11
65.84439960697091
 21
90.71221766048257
 31
0.0
  0
LINE
  5
580
330
21
100
AcDbEntity
  8
1
100
AcDbLine
 10
187.3284621069706
 20
30.66005516048244
 30
0.0
 11
153.8284621069706
 21
30.66005516048244
 31
0.0
  0
LINE
  5
581
330
21
100
AcDbEntity
  8
1
100
AcDbLine
 10
206.5784621069706
 20
30.31005516048253
 30
0.0
 11
188.1284621069717
 21
30.31005516048253
 31
0.0
  0
LINE
  5
582
330
21
100
AcDbEntity
  8
1
100
AcDbLine
 10
207.0784621069706
 20
30.81005516048253
 30
0.0
 11
187.6284621069717
 21
30.81005516048253
 31
0.0
  0
LINE
  5
583
330
21
100
AcDbEntity
  8
1
100
AcDbLine
 10
187.6284621069717
 20
30.81005516048253
 30
0.0
 11
187.6284621069717
 21
31.06005516048253
 31
0.0
  0
LINE
  5
584
330
21
100
AcDbEntity
  8
1
100
AcDbLine
 10
188.1284621069717
 20
31.06005516048253
 30
0.0
 11
188.1284621069717
 21
30.31005516048253
 31
0.0
  0
LINE
  5
585
330
21
100
AcDbEntity
  8
1
100
AcDbLine
 10
187.3284621069706
 20
30.66005516048244
 30
0.0
 11
187.3284621069706
 21
31.06005516048253
 31
0.0
  0
LINE
  5
586
330
21
100
AcDbEntity
  8
1
100
AcDbLine
 10
207.0784621069706
 20
30.81005516048253
 30
0.0
 11
207.0784621069706
 21
31.06005516048253
 31
0.0
  0
LINE
  5
587
330
21
100
AcDbEntity
  8
1
100
AcDbLine
 10
206.5784621069706
 20
31.06005516048253
 30
0.0
 11
206.5784621069706
 21
30.31005516048253
 31
0.0
  0
LINE
  5
588
330
21
100
AcDbEntity
  8
1
100
AcDbLine
 10
206.5784621069706
 20
30.31005516048253
 30
0.0
 11
207.0784621069706
 21
30.81005516048253
 31
0.0
  0
LINE
  5
589
330
21
100
AcDbEntity
  8
1
100
AcDbLine
 10
187.6284621069717
 20
30.81005516048253
 30
0.0
 11
188.1284621069717
 21
30.31005516048253
 31
0.0
  0
LINE
  5
58A
330
21
100
AcDbEntity
  8
1
100
AcDbLine
 10
153.8284621069706
 20
30.66005516048244
 30
0.0
 11
153.8284621069706
 21
31.06005516048253
 31
0.0
  0
LINE
  5
58B
330
21
100
AcDbEntity
  8
1
100
AcDbLine
 10
134.5784621069706
 20
30.31005516048253
 30
0.0
 11
153.0284621069713
 21
30.31005516048253
 31
0.0
  0
LINE
  5
58C
330
21
100
AcDbEntity
  8
1
100
AcDbLine
 10
134.0784621069706
 20
30.81005516048253
 30
0.0
 11
153.5284621069713
 21
30.81005516048253
 31
0.0
  0
LINE
  5
58D
330
21
100
AcDbEntity
  8
1
100
AcDbLine
 10
153.5284621069713
 20
30.81005516048253
 30
0.0
 11
153.5284621069713
 21
31.06005516048253
 31
0.0
  0
LINE
  5
58E
330
21
100
AcDbEntity
  8
1
100
AcDbLine
 10
153.0284621069713
 20
31.06005516048253
 30
0.0
 11
153.0284621069713
 21
30.31005516048253
 31
0.0
  0
LINE
  5
58F
330
21
100
AcDbEntity
  8
1
100
AcDbLine
 10
134.0784621069706
 20
30.81005516048253
 30
0.0
 11
134.0784621069706
 21
31.06005516048253
 31
0.0
  0
LINE
  5
590
330
21
100
AcDbEntity
  8
1
100
AcDbLine
 10
134.5784621069706
 20
31.06005516048253
 30
0.0
 11
134.5784621069706
 21
30.31005516048253
 31
0.0
  0
LINE
  5
591
330
21
100
AcDbEntity
  8
1
100
AcDbLine
 10
134.5784621069706
 20
30.31005516048253
 30
0.0
 11
134.0784621069706
 21
30.81005516048253
 31
0.0
  0
LINE
  5
592
330
21
100
AcDbEntity
  8
1
100
AcDbLine
 10
153.5284621069713
 20
30.81005516048253
 30
0.0
 11
153.0284621069713
 21
30.31005516048253
 31
0.0
  0
LINE
  5
593
330
21
100
AcDbEntity
  8
1
100
AcDbLine
 10
187.3284621069706
 20
221.487655160483
 30
0.0
 11
153.8284621069706
 21
221.487655160483
 31
0.0
  0
LINE
  5
594
330
21
100
AcDbEntity
  8
1
100
AcDbLine
 10
206.5784621069706
 20
221.8376551604824
 30
0.0
 11
188.1284621069717
 21
221.8376551604824
 31
0.0
  0
LINE
  5
595
330
21
100
AcDbEntity
  8
1
100
AcDbLine
 10
207.0784621069706
 20
221.3376551604824
 30
0.0
 11
187.6284621069717
 21
221.3376551604824
 31
0.0
  0
LINE
  5
596
330
21
100
AcDbEntity
  8
1
100
AcDbLine
 10
187.6284621069717
 20
221.3376551604824
 30
0.0
 11
187.6284621069717
 21
221.0876551604824
 31
0.0
  0
LINE
  5
597
330
21
100
AcDbEntity
  8
1
100
AcDbLine
 10
188.1284621069717
 20
221.0876551604824
 30
0.0
 11
188.1284621069717
 21
221.8376551604824
 31
0.0
  0
LINE
  5
598
330
21
100
AcDbEntity
  8
1
100
AcDbLine
 10
187.3284621069706
 20
221.487655160483
 30
0.0
 11
187.3284621069706
 21
221.0876551604824
 31
0.0
  0
LINE
  5
599
330
21
100
AcDbEntity
  8
1
100
AcDbLine
 10
207.0784621069706
 20
221.3376551604824
 30
0.0
 11
207.0784621069706
 21
221.0876551604824
 31
0.0
  0
LINE
  5
59A
330
21
100
AcDbEntity
  8
1
100
AcDbLine
 10
206.5784621069706
 20
221.0876551604824
 30
0.0
 11
206.5784621069706
 21
221.8376551604824
 31
0.0
  0
LINE
  5
59B
330
21
100
AcDbEntity
  8
1
100
AcDbLine
 10
206.5784621069706
 20
221.8376551604824
 30
0.0
 11
207.0784621069706
 21
221.3376551604824
 31
0.0
  0
LINE
  5
59C
330
21
100
AcDbEntity
  8
1
100
AcDbLine
 10
187.6284621069717
 20
221.3376551604824
 30
0.0
 11
188.1284621069717
 21
221.8376551604824
 31
0.0
  0
LINE
  5
59D
330
21
100
AcDbEntity
  8
1
100
AcDbLine
 10
153.8284621069706
 20
221.487655160483
 30
0.0
 11
153.8284621069706
 21
221.0876551604824
 31
0.0
  0
LINE
  5
59E
330
21
100
AcDbEntity
  8
1
100
AcDbLine
 10
134.5784621069706
 20
221.8376551604824
 30
0.0
 11
153.0284621069713
 21
221.8376551604824
 31
0.0
  0
LINE
  5
59F
330
21
100
AcDbEntity
  8
1
100
AcDbLine
 10
134.0784621069706
 20
221.3376551604824
 30
0.0
 11
153.5284621069713
 21
221.3376551604824
 31
0.0
  0
LINE
  5
5A0
330
21
100
AcDbEntity
  8
1
100
AcDbLine
 10
153.5284621069713
 20
221.3376551604824
 30
0.0
 11
153.5284621069713
 21
221.0876551604824
 31
0.0
  0
LINE
  5
5A1
330
21
100
AcDbEntity
  8
1
100
AcDbLine
 10
153.0284621069713
 20
221.0876551604824
 30
0.0
 11
153.0284621069713
 21
221.8376551604824
 31
0.0
  0
LINE
  5
5A2
330
21
100
AcDbEntity
  8
1
100
AcDbLine
 10
134.0784621069706
 20
221.3376551604824
 30
0.0
 11
134.0784621069706
 21
221.0876551604824
 31
0.0
  0
LINE
  5
5A3
330
21
100
AcDbEntity
  8
1
100
AcDbLine
 10
134.5784621069706
 20
221.0876551604824
 30
0.0
 11
134.5784621069706
 21
221.8376551604824
 31
0.0
  0
LINE
  5
5A4
330
21
100
AcDbEntity
  8
1
100
AcDbLine
 10
134.5784621069706
 20
221.8376551604824
 30
0.0
 11
134.0784621069706
 21
221.3376551604824
 31
0.0
  0
LINE
  5
5A5
330
21
100
AcDbEntity
  8
1
100
AcDbLine
 10
153.5284621069713
 20
221.3376551604824
 30
0.0
 11
153.0284621069713
 21
221.8376551604824
 31
0.0
  0
DIMENSION
  5
5A6
330
21
100
AcDbEntity
  8
1
100
AcDbDimension
  2
*D244
 10
283.7527996069712
 20
183.1242867767487
 30
0.0
 11
263.5552996069712
 21
188.9992867767487
 31
0.0
 70
    32
 71
     5
 42
9.75
  3
Copy(2) of STANDRAD
100
AcDbAlignedDimension
 13
293.5027996069712
 23
165.2122176604826
 33
0.0
 14
283.7527996069712
 24
168.2122176604826
 34
0.0
100
AcDbRotatedDimension
  0
ENDSEC
  0
SECTION
  2
OBJECTS
  0
DICTIONARY
  5
A
330
0
100
AcDbDictionary
281
     1
  3
ACAD_COLOR
350
35
  3
ACAD_GROUP
350
33
  3
ACAD_LAYOUT
350
26
  3
ACAD_MATERIAL
350
D
  3
ACAD_MLEADERSTYLE
350
602
  3
ACAD_MLINESTYLE
350
1E
  3
ACAD_PLOTSETTINGS
350
34
  3
ACAD_PLOTSTYLENAME
350
B
  3
ACAD_SCALELIST
350
3D
  3
ACAD_VISUALSTYLE
350
36
  3
ACDBHEADERROUNDTRIPXREC
350
609
  3
AcDbVariableDictionary
350
600
  0
DICTIONARY
  5
60C
330
32
100
AcDbDictionary
280
     1
281
     1
  3
ACAD_XREC_ROUNDTRIP
360
60D
  0
DICTIONARY
  5
2
330
1
100
AcDbDictionary
280
     1
281
     1
  3
ACAD_LAYERSTATES
360
3
  3
ACLYDICTIONARY
360
4
  0
DICTIONARY
  5
8
330
7
100
AcDbDictionary
280
     1
281
     1
  3
ADSK_XREC_LAYER_RECONCILED
360
9
  0
DICTIONARY
  5
526
330
525
100
AcDbDictionary
280
     1
281
     1
  3
ADSK_XREC_LAYER_RECONCILED
360
527
  0
DICTIONARY
  5
65
330
64
100
AcDbDictionary
280
     1
281
     1
  3
ADSK_XREC_LAYER_RECONCILED
360
66
  0
DICTIONARY
  5
50C
330
50B
100
AcDbDictionary
280
     1
281
     1
  3
ADSK_XREC_LAYER_RECONCILED
360
50D
  0
DICTIONARY
  5
516
330
515
100
AcDbDictionary
280
     1
281
     1
  3
ADSK_XREC_LAYER_RECONCILED
360
517
  0
DICTIONARY
  5
22
330
21
100
AcDbDictionary
280
     1
281
     1
  3
ACAD_SORTENTS
360
23
  0
DICTIONARY
  5
35
102
{ACAD_REACTORS
330
A
102
}
330
A
100
AcDbDictionary
281
     1
  0
DICTIONARY
  5
33
102
{ACAD_REACTORS
330
A
102
}
330
A
100
AcDbDictionary
281
     1
  0
DICTIONARY
  5
26
102
{ACAD_REACTORS
330
A
102
}
330
A
100
AcDbDictionary
281
     1
  3
Layout1
350
2F
  3
Model
350
27
  0
DICTIONARY
  5
D
102
{ACAD_REACTORS
330
A
102
}
330
A
100
AcDbDictionary
281
     1
  3
ByBlock
350
60
  3
ByLayer
350
19
  3
Global
350
E
  0
DICTIONARY
  5
602
102
{ACAD_REACTORS
330
A
102
}
330
A
100
AcDbDictionary
281
     1
  0
DICTIONARY
  5
1E
102
{ACAD_REACTORS
330
A
102
}
330
A
100
AcDbDictionary
281
     1
  3
Standard
350
1F
  0
DICTIONARY
  5
34
102
{ACAD_REACTORS
330
A
102
}
330
A
100
AcDbDictionary
281
     1
  0
ACDBDICTIONARYWDFLT
  5
B
102
{ACAD_REACTORS
330
A
102
}
330
A
100
AcDbDictionary
281
     1
  3
Normal
350
C
100
AcDbDictionaryWithDefault
340
C
  0
DICTIONARY
  5
3D
102
{ACAD_REACTORS
330
A
102
}
330
A
100
AcDbDictionary
281
     1
  3
*A1
350
4F
  3
*A10
350
58
  3
*A11
350
59
  3
*A12
350
5A
  3
*A13
350
5B
  3
*A14
350
5C
  3
*A15
350
5D
  3
*A16
350
5E
  3
*A17
350
5F
  3
*A2
350
50
  3
*A3
350
51
  3
*A4
350
52
  3
*A5
350
53
  3
*A6
350
54
  3
*A7
350
55
  3
*A8
350
56
  3
*A9
350
57
  0
DICTIONARY
  5
36
102
{ACAD_REACTORS
330
A
102
}
330
A
100
AcDbDictionary
281
     1
  3
2dWireframe
350
3A
  3
Realistic
350
37
  3
Wireframe
350
38
  0
DICTIONARY
  5
609
102
{ACAD_REACTORS
330
A
102
}
330
A
100
AcDbDictionary
281
     1
  3
COLORDICT
350
60A
  3
MATERIALDICT
350
60B
  0
DICTIONARY
  5
600
102
{ACAD_REACTORS
330
A
102
}
330
A
100
AcDbDictionary
281
     1
  3
CANNOSCALE
350
60E
  3
DIMASSOC
350
607
  3
HIDETEXT
350
608
  3
MSLTSCALE
350
60F
  3
PSOLHEIGHT
350
604
  3
PSOLWIDTH
350
603
  0
XRECORD
  5
60D
102
{ACAD_REACTORS
330
60C
102
}
330
60C
100
AcDbXrecord
280
     1
102
VTR_0.000_0.000_1.000_1.000_VISUALSTYLE
340
3A
102
VTR_0.000_0.000_1.000_1.000_GRIDDISPLAY
 70
     3
102
VTR_0.000_0.000_1.000_1.000_GRIDMAJOR
 70
     5
102
VTR_0.000_0.000_1.000_1.000_DEFAULTLIGHTING
280
     1
102
VTR_0.000_0.000_1.000_1.000_DEFAULTLIGHTINGTYPE
 70
     1
102
VTR_0.000_0.000_1.000_1.000_BRIGHTNESS
141
0.0
102
VTR_0.000_0.000_1.000_1.000_CONTRAST
142
0.0
  0
DICTIONARY
  5
3
102
{ACAD_REACTORS
330
2
102
}
330
2
100
AcDbDictionary
281
     1
  0
DICTIONARY
  5
4
102
{ACAD_REACTORS
330
2
102
}
330
2
100
AcDbDictionary
281
     1
1001
ACAD
1000
All
  0
XRECORD
  5
9
102
{ACAD_REACTORS
330
8
102
}
330
8
100
AcDbXrecord
280
     1
290
     0
  0
XRECORD
  5
527
102
{ACAD_REACTORS
330
526
102
}
330
526
100
AcDbXrecord
280
     1
290
     0
  0
XRECORD
  5
66
102
{ACAD_REACTORS
330
65
102
}
330
65
100
AcDbXrecord
280
     1
290
     1
  0
XRECORD
  5
50D
102
{ACAD_REACTORS
330
50C
102
}
330
50C
100
AcDbXrecord
280
     1
290
     1
  0
XRECORD
  5
517
102
{ACAD_REACTORS
330
516
102
}
330
516
100
AcDbXrecord
280
     1
290
     1
  0
SORTENTSTABLE
  5
23
102
{ACAD_REACTORS
330
22
102
}
330
22
100
AcDbSortentsTable
330
21
  0
LAYOUT
  5
2F
102
{ACAD_REACTORS
330
26
102
}
330
26
100
AcDbPlotSettings
  1

  2
Microsoft Print to PDF
  4
A4
  6

 40
3.2
 41
3.2
 42
3.2
 43
3.2
 44
210.0
 45
297.0
 46
0.0
 47
0.0
 48
0.0
 49
0.0
140
0.0
141
0.0
142
1.0
143
1.0
 70
   672
 72
     1
 73
     1
 74
     1
  7

 75
    16
147
1.0
148
-15.0979381443299
149
-17.31672394043528
100
AcDbLayout
  1
Layout1
 70
     1
 71
     1
 10
11.8979381443299
 20
14.11672394043528
 11
308.8979381443299
 21
224.1167239404353
 12
0.0
 22
0.0
 32
0.0
 14
15.0979381443299
 24
17.31672394043528
 34
0.0
 15
241.9020618556701
 25
177.6832760595647
 35
0.0
146
0.0
 13
0.0
 23
0.0
 33
0.0
 16
1.0
 26
0.0
 36
0.0
 17
0.0
 27
1.0
 37
0.0
 76
     0
330
2C
1001
PLOTTRANSPARENCY
1071
        0
1001
ACAD_PSEXT
1000
Microsoft Print to PDF
1000
Microsoft Print To PDF
1000
PORTPROMPT:
1000

1070
     0
  0
LAYOUT
  5
27
102
{ACAD_REACTORS
330
26
102
}
102
{ACAD_XDICTIONARY
360
28
102
}
330
26
100
AcDbPlotSettings
  1

  2
none_device
  4
ISO_A4_(210.00_x_297.00_MM)
  6

 40
7.5
 41
20.0
 42
7.5
 43
20.0
 44
210.0
 45
297.0
 46
11.54999923706055
 47
-13.65000009536743
 48
0.0
 49
0.0
140
0.0
141
0.0
142
1.0
143
8.704084754739808
 70
 11952
 72
     1
 73
     0
 74
     0
  7

 75
     0
147
0.1148885871608098
148
0.0
149
0.0
100
AcDbLayout
  1
Model
 70
     1
 71
     0
 10
0.0
 20
0.0
 11
12.0
 21
9.0
 12
0.0
 22
0.0
 32
0.0
 14
-5.0
 24
-2.619999999999891
 34
-76.97363477640508
 15
9381.399435750398
 25
5070.926163757304
 35
42.0000000000003
146
0.0
 13
0.0
 23
0.0
 33
0.0
 16
1.0
 26
0.0
 36
0.0
 17
0.0
 27
1.0
 37
0.0
 76
     0
330
21
331
39
1001
ACAD_PSEXT
1000
None
1000
None
1000
Not applicable
1000
The layout will not be plotted unless a new plotter configuration name is selected.
1070
     0
  0
MATERIAL
  5
60
102
{ACAD_REACTORS
330
D
102
}
102
{ACAD_XDICTIONARY
360
61
102
}
330
D
100
AcDbMaterial
  1
ByBlock
 73
     2
 78
     2
172
     2
176
     2
270
     2
274
     2
  0
MATERIAL
  5
19
102
{ACAD_REACTORS
330
D
102
}
102
{ACAD_XDICTIONARY
360
1A
102
}
330
D
100
AcDbMaterial
  1
ByLayer
 73
     2
 78
     2
172
     2
176
     2
270
     2
274
     2
  0
MATERIAL
  5
E
102
{ACAD_REACTORS
330
D
102
}
102
{ACAD_XDICTIONARY
360
F
102
}
330
D
100
AcDbMaterial
  1
Global
 73
     2
 43
0.0007999999797903
 43
0.0
 43
0.0
 43
0.0
 43
0.0
 43
0.0007999999797903
 43
0.0
 43
0.0
 43
0.0
 43
0.0
 43
1.0
 43
0.0
 43
0.0
 43
0.0
 43
0.0
 43
1.0
 78
     2
172
     2
 49
0.0007999999797903
 49
0.0
 49
0.0
 49
0.0
 49
0.0
 49
0.0007999999797903
 49
0.0
 49
0.0
 49
0.0
 49
0.0
 49
1.0
 49
0.0
 49
0.0
 49
0.0
 49
0.0
 49
1.0
176
     2
142
0.0007999999797903
142
0.0
142
0.0
142
0.0
142
0.0
142
0.0007999999797903
142
0.0
142
0.0
142
0.0
142
0.0
142
1.0
142
0.0
142
0.0
142
0.0
142
0.0
142
1.0
270
     2
144
0.0007999999797903
144
0.0
144
0.0
144
0.0
144
0.0
144
0.0007999999797903
144
0.0
144
0.0
144
0.0
144
0.0
144
1.0
144
0.0
144
0.0
144
0.0
144
0.0
144
1.0
274
     2
1001
ACAD
1070
    -1
1070
     3
1070
     0
1000

1071
        0
1070
     0
  0
MLINESTYLE
  5
1F
102
{ACAD_REACTORS
330
1E
102
}
330
1E
100
AcDbMlineStyle
  2
STANDARD
 70
     0
  3

 62
   256
 51
90.0
 52
90.0
 71
     2
 49
0.5
 62
   256
  6
BYLAYER
 49
-0.5
 62
   256
  6
BYLAYER
  0
ACDBPLACEHOLDER
  5
C
102
{ACAD_REACTORS
330
B
102
}
330
B
  0
SCALE
  5
4F
102
{ACAD_REACTORS
330
3D
102
}
330
3D
100
AcDbScale
 70
     0
300
1:1
140
1.0
141
1.0
290
     1
  0
SCALE
  5
58
102
{ACAD_REACTORS
330
3D
102
}
330
3D
100
AcDbScale
 70
     0
300
1:40
140
1.0
141
40.0
290
     0
  0
SCALE
  5
59
102
{ACAD_REACTORS
330
3D
102
}
330
3D
100
AcDbScale
 70
     0
300
1:50
140
1.0
141
50.0
290
     0
  0
SCALE
  5
5A
102
{ACAD_REACTORS
330
3D
102
}
330
3D
100
AcDbScale
 70
     0
300
1:100
140
1.0
141
100.0
290
     0
  0
SCALE
  5
5B
102
{ACAD_REACTORS
330
3D
102
}
330
3D
100
AcDbScale
 70
     0
300
2:1
140
2.0
141
1.0
290
     0
  0
SCALE
  5
5C
102
{ACAD_REACTORS
330
3D
102
}
330
3D
100
AcDbScale
 70
     0
300
4:1
140
4.0
141
1.0
290
     0
  0
SCALE
  5
5D
102
{ACAD_REACTORS
330
3D
102
}
330
3D
100
AcDbScale
 70
     0
300
8:1
140
8.0
141
1.0
290
     0
  0
SCALE
  5
5E
102
{ACAD_REACTORS
330
3D
102
}
330
3D
100
AcDbScale
 70
     0
300
10:1
140
10.0
141
1.0
290
     0
  0
SCALE
  5
5F
102
{ACAD_REACTORS
330
3D
102
}
330
3D
100
AcDbScale
 70
     0
300
100:1
140
100.0
141
1.0
290
     0
  0
SCALE
  5
50
102
{ACAD_REACTORS
330
3D
102
}
330
3D
100
AcDbScale
 70
     0
300
1:2
140
1.0
141
2.0
290
     0
  0
SCALE
  5
51
102
{ACAD_REACTORS
330
3D
102
}
330
3D
100
AcDbScale
 70
     0
300
1:4
140
1.0
141
4.0
290
     0
  0
SCALE
  5
52
102
{ACAD_REACTORS
330
3D
102
}
330
3D
100
AcDbScale
 70
     0
300
1:5
140
1.0
141
5.0
290
     0
  0
SCALE
  5
53
102
{ACAD_REACTORS
330
3D
102
}
330
3D
100
AcDbScale
 70
     0
300
1:8
140
1.0
141
8.0
290
     0
  0
SCALE
  5
54
102
{ACAD_REACTORS
330
3D
102
}
330
3D
100
AcDbScale
 70
     0
300
1:10
140
1.0
141
10.0
290
     0
  0
SCALE
  5
55
102
{ACAD_REACTORS
330
3D
102
}
330
3D
100
AcDbScale
 70
     0
300
1:16
140
1.0
141
16.0
290
     0
  0
SCALE
  5
56
102
{ACAD_REACTORS
330
3D
102
}
330
3D
100
AcDbScale
 70
     0
300
1:20
140
1.0
141
20.0
290
     0
  0
SCALE
  5
57
102
{ACAD_REACTORS
330
3D
102
}
330
3D
100
AcDbScale
 70
     0
300
1:30
140
1.0
141
30.0
290
     0
  0
VISUALSTYLE
  5
3A
102
{ACAD_REACTORS
330
36
102
}
102
{ACAD_XDICTIONARY
360
617
102
}
330
36
100
AcDbVisualStyle
  2
2dWireframe
 70
     4
 71
     0
 72
     2
 73
     1
 90
        0
 40
0.6
 41
30.0
 62
     5
 63
     7
 74
     1
 91
        4
 64
     7
 65
   257
 75
     1
175
     1
 42
1.0
 92
        0
 66
   257
 43
1.0
 76
     1
 77
     6
 78
     2
 67
     7
 79
     5
170
     0
171
     0
290
     0
174
     0
 93
        1
 44
0.0
173
     0
291
     0
 45
0.0
1001
ACAD
1000
AcDbSavedByObjectVersion
1070
     0
  0
VISUALSTYLE
  5
37
102
{ACAD_REACTORS
330
36
102
}
102
{ACAD_XDICTIONARY
360
613
102
}
330
36
100
AcDbVisualStyle
  2
Realistic
 70
     8
 71
     2
 72
     3
 73
     0
 90
        2
 40
0.6
 41
30.0
 62
     5
 63
     7
 74
     0
 91
        0
 64
     7
 65
   257
 75
     1
175
     1
 42
1.0
 92
        8
 66
   257
 43
1.0
 76
     1
 77
     6
 78
     2
 67
     7
 79
     3
170
     0
171
     0
290
     0
174
     0
 93
       13
 44
0.0
173
     0
291
     0
 45
0.0
1001
ACAD
1000
AcDbSavedByObjectVersion
1070
     0
  0
VISUALSTYLE
  5
38
102
{ACAD_REACTORS
330
36
102
}
102
{ACAD_XDICTIONARY
360
615
102
}
330
36
100
AcDbVisualStyle
  2
Wireframe
 70
     5
 71
     0
 72
     2
 73
     0
 90
        0
 40
0.6
 41
30.0
 62
     5
 63
     7
 74
     1
 91
        4
 64
     7
 65
   257
 75
     1
175
     1
 42
1.0
 92
        0
 66
   257
 43
1.0
 76
     1
 77
     6
 78
     2
 67
     7
 79
     3
170
     0
171
     0
290
     0
174
     0
 93
        1
 44
0.0
173
     0
291
     0
 45
0.0
1001
ACAD
1000
AcDbSavedByObjectVersion
1070
     0
  0
XRECORD
  5
60A
102
{ACAD_REACTORS
330
609
102
}
330
609
100
AcDbXrecord
280
     1
340
35
  0
XRECORD
  5
60B
102
{ACAD_REACTORS
330
609
102
}
330
609
100
AcDbXrecord
280
     1
340
D
  0
DICTIONARYVAR
  5
60E
102
{ACAD_REACTORS
330
600
102
}
330
600
100
DictionaryVariables
280
     0
  1
1:1
  0
DICTIONARYVAR
  5
607
102
{ACAD_REACTORS
330
600
102
}
330
600
100
DictionaryVariables
280
     0
  1
2
  0
DICTIONARYVAR
  5
608
102
{ACAD_REACTORS
330
600
102
}
330
600
100
DictionaryVariables
280
     0
  1
1
  0
DICTIONARYVAR
  5
60F
102
{ACAD_REACTORS
330
600
102
}
330
600
100
DictionaryVariables
280
     0
  1
1
  0
DICTIONARYVAR
  5
604
102
{ACAD_REACTORS
330
600
102
}
330
600
100
DictionaryVariables
280
     0
  1
80.000000
  0
DICTIONARYVAR
  5
603
102
{ACAD_REACTORS
330
600
102
}
330
600
100
DictionaryVariables
280
     0
  1
5.000000
  0
DICTIONARY
  5
28
330
27
100
AcDbDictionary
280
     1
281
     1
  3
AcPublish_PlotSettingsOverride
360
29
  0
DICTIONARY
  5
61
330
60
100
AcDbDictionary
280
     1
281
     1
  3
ACAD_XREC_ROUNDTRIP
360
612
  3
FBXASSET
360
62
  0
DICTIONARY
  5
1A
330
19
100
AcDbDictionary
280
     1
281
     1
  3
ACAD_XREC_ROUNDTRIP
360
610
  3
FBXASSET
360
1B
  0
DICTIONARY
  5
F
330
E
100
AcDbDictionary
280
     1
281
     1
  3
ACAD_XREC_ROUNDTRIP
360
611
  3
FBXASSET
360
10
  0
DICTIONARY
  5
617
330
3A
100
AcDbDictionary
280
     1
281
     1
  3
ACAD_XREC_ROUNDTRIP
360
618
  0
DICTIONARY
  5
613
330
37
100
AcDbDictionary
280
     1
281
     1
  3
ACAD_XREC_ROUNDTRIP
360
614
  0
DICTIONARY
  5
615
330
38
100
AcDbDictionary
280
     1
281
     1
  3
ACAD_XREC_ROUNDTRIP
360
616
  0
PLOTSETTINGS
  5
29
102
{ACAD_REACTORS
330
28
330
26
102
}
330
28
100
AcDbPlotSettings
  1

  2
none_device
  4
ISO_A4_(210.00_x_297.00_MM)
  6

 40
7.5
 41
20.0
 42
7.5
 43
20.0
 44
210.0
 45
297.0
 46
11.54999923706055
 47
-13.65000009536743
 48
-348.7833231427103
 49
1353.039955724496
140
142.6483611688727
141
1495.266804985138
142
1.0
143
8.704084754739808
 70
 11952
 72
     1
 73
     0
 74
     0
  7

 75
     0
147
0.1148885871608098
148
0.0
149
0.0
1001
ACAD_PSEXT
1000
<keine>
1000
<keine>
1000
Nicht anwendbar
1000
Das Layout wird erst geplottet, wenn ein neuer Plotter-Konfigurationsname ausgewählt wird.
1070
     0
1001
PLOTTRANSPARENCY
1071
        0
  0
XRECORD
  5
612
102
{ACAD_REACTORS
330
61
102
}
330
61
100
AcDbXrecord
280
     1
102
MATERIAL
148
0.0
149
0.0
149
0.0
 93
        0
 94
       63
282
     0
 72
     1
 77
     1
171
     1
175
     1
179
     1
273
     0
  0
XRECORD
  5
62
102
{ACAD_REACTORS
330
61
102
}
330
61
100
AcDbXrecord
280
     1
 70
     1
 90
429727718
  1
D62C5603-E3A1-4AEA-B7FB-FE5D8D0755AF
310
504B03040A0000080000CC70623B3DEE336E79000000790000001B0000006175746F6465736B2D64657369676E2D7061636B6167652E786D6C3C3F786D6C2076657273696F6E3D22312E302220656E636F64696E673D227574662D3822203F3E3C666F726D6174733E3C666F726D61743E687474703A2F2F736368656D612E
310
6175746F6465736B2E636F6D2F64657369676E2D7061636B6167652F323030393C2F666F726D61743E3C2F666F726D6174733E504B0304140006080800CC70623BD486FD9CA0000000F4000000130000005B436F6E74656E745F54797065735D2E786D6C7D8EC10E82300C865F65E91D8A1E8C310C0EEA1BF002731658846E
310
D98AC1B77784ABF1D8FE5FBFBF75BBCE937A534CCEB38643598122B6FEE978D0B0485F9C41B54DDD7D022595594E1A469170414C76A4D9A4D207E29CF43ECE46F218070CC6BECC4078ACAA135ACF422C856C0E68EA1BF5669944DDD7BCDE7B1F8E415D77AECB980613C2E4AC91FC167A2B244592486606FC29C8FD7F045B9A
310
EF7053A7E60B504B0304140006080800CC70623B853B8169EB0000007C01000008000000636F72652E786D6C8D90416EC3201045AF62CDB6C206821CC7C244919D9CA01740401C94182C03558F5F9C3852BBEB6A467FFE9B197D7EFC9E1EC5975982F5AE035262288C535E5B377690E21535501C055FBC8FBF6C503839990E
310
5619041F179FE64D52DE45E362569DD7661365082642A11EB9E920A89B99642953CC8E702F67A9EE7234257977194EC9EAE275C4EABCCF5EAD5940D4AC6F0E35A568B8F43562CD7046CD199FD07E60174276A7BE677B5EADB0E0D14EEFFB6A31321A0D82627C4084204C3F096B71DD52F6819B16635EADF63F509AF53FA164
310
5DDCD1EDDD17164090FCC8732078B56691CB33A85CD7DCC40F504B0304140006080800CC70623B55019EA25F0000007C00000007000000636E782E786D6C4DCB3B0E80201045D1AD90E915ED2CF8AC45050C11660C8261F98AB1B07AC9C97D42D718D865D3E909258CFD00CCE24AC6E326A164D74DC0B4128928FF32603847
310
2BA13128B1252AC747C6BAB984FC68F0B87FE8960A5C09FE86CFB69FBA01504B0304140006080800CC70623BDBABAAF470010000D40300000C0000006662782F636F72652E786D6CC553D16E823014FD95A6AF4B694182CC941A83FA05FB810A9511A125A5257EFE2E82712ECEB8A7F100CD39F7F69E734AF9FADC366850B6
310
AF8DCE7018308C942E4C59EB2AC3DE1D498AD15A706B8CFB56869196ADCAF00863C12B6B7C374385D14E6907A836A59A41D9F7CA615434B0C8705F7CAA5606D23BA8E84F41278B93AC54100640439DE0BDB320004D43C63716C7C399D30917DCFBBA9CD9BA8469F5B156168B24CED3F7248AC8769F27244EB73B92EED8862C
310
B7F13E0C179B3C8F979C8ECD82BBBABDAA2BAC924E9558448CBD9330242CFA08E3154B5651FCC6D215639C8EE5774DBE2B5F6CF2B5768B68963BB5F5588420E442FC700B1139D4CB01F450C1E918227C2E09DF070D8140C84E1E9AAB8F1340832A9CB13130A5F1376A908D57309505ECF2A0DF179C4E9D30F5B239B87E3823
310
7A79C6F31DE1A8A5AEC08474B03C7837EAE4938639B44E5932B833D2C6B6B279CDC613877FA26EE21F4A2A4C63EC7F29A2F301D1F9F7A0E37D145F504B0304140006080800CC70623B9C113CC27E0000009D0000000B0000006662782F636E782E786D6C4DCCDF0A83201C86E15B91DFB94BFB330DD428C8FB886521330DA7
310
6397BF1A1DECE883878F57749FCDA1B7892F1BBC047A23808C7F84D9FA55424E0BE6803A256208E9EF06C84F9B91703228B1C690F78B66B34CD9A5439DF5CF0BFBF65E35BCA1B8D6A5C6F540381E886698B5741C695F9503EBA150A2F8958E3DC3EA0B504B0304140006080800CC70623B7DF2F77C2A010000120200003100
310
00006662782F41393633353835312D344632462D344230382D423046372D3739314545314133324237412F636F72652E786D6C8D51DB8EC22014FC15C2939B0D2DB4B45643319AE817EC0F6041255A68B86CFCFC856D4D76DF7CE190393373060EDB3DC707F856CE6B6B7A480A0C81328395DA5C7B18C3057510EC3873D686
310
3F34088C18550F330C39BB3A1BA7051AAC09CA84841A2BD5020AEF55806078A44B0FFD7053A328440C89E1EFC52486BBB8AA8214A99D789CF9E05200300FC927E4FB4D5B375D43103D5527440FB843077C5AA3F5861C8F645F5787F59E95B390B318B55CE45AA638FAA2957BD7248B390B7A7CC51F9C124149C82B8C378810
310
84AB2F42B7B8DD56F413775B8C5999E9FF4471926F8AA236A1AE96B8B3CC434E5839373893369E1FAF30EA395917409EB7F26AF8801C171837A4A6AC9C89E9F9C9B1A58BA30FD6A5EF5DDDCF894B9AD9B6A59C957943A9FCAE2FD5BC4DFE03504B0304140006080800CC70623BAD7543B64E01000033030000300000006662
310
782F41393633353835312D344632462D344230382D423046372D3739314545314133324237412F636E782E786D6CD593CD6EC32010845F0571AD6CE3D48AD20813A9873E410FBD12D82434182C7EAAE6EDBB2424CD25871E7B41D6EC30B3FA84F9E67BB2E40B4234DE8DB46F1925E094D7C6ED479AD3AE5951B2113C789FEE
310
6C943839C1488B4C05DF079FE72A69D8C96C13AAD6B8631503449F83828872B949AC57D26200B826A308D316B4064D6E46FCDA41C05550DC9E483A00797BFD207EFB092A45DE9514C1BBD22178396BD39D891265658C238DEA00936C654E5E433CB65A26D9F6EDB5EBC14EBF49A45CB856E66048291F6939A9A81BB5C89177
310
38143CA680F4AA299D66A042CEB3354A2684DC9D8D178FE0D9B8B41CAAD720F880EE7EF93C0C18769E099ECC04D5A102C8049A8A05632F4DDF376CF1DE0F6BB65C2F8627B65A33C6BB62177CEBBDAD973006829F89F22E814B54F4BC2BE347F8AA8F681390B50FA73F804400B5F542E796F19FF974E7F78DB802FE05E20750
310
4B0304140006080800CC70623BE75B7789680500003C100000340000006662782F41393633353835312D344632462D344230382D423046372D3739314545314133324237412F6F626A656374732E786D6CAD575B8F9B3818FD2B887D06C22499CB8AA1CA655245D5B455A356FB305264C061D8018C6C3393D95FBFC7600890
310
A4CD5EF210B0B1BFEBF98E3F7B1FF6596ABC522E1296DF9BAE3D320D9A872C4AF2F8DE2CE5CEBA358D0FBEC719939D65A691938CDE9B6ADAF4BD98B3B2D05311DD91329583D9D5FC0F438434A7A611A644887B5384CF34233629258BA878B12322891DEFF6B66BD70BFB62634E8AE781D082709A4B588AF91C528CDA28B73F
310
1C998EEF39EABBEFA97FBD6A7C7E9553F9D3D79FE442923C3C523610337627CB87ABE99D359D4CC6D6E4FACAB5E6ABF9D2726FC6A3C5F56271377BB88362213924694B38DD99FE47C48627A1E7D49F5A8BB5E1A74C0A599ED3B0F21F1E56366B89112D681E218F0915D0D6F17AD41FBA2A369DCF6335D62ABBD39779D5DDD1
310
11D4D8DE3CBB96B2E04FB8202E41051754A1AA8E8F76B4C6DFE810B580B1547F4B84911149794252234D024EF8BBE963A95AE27B3D310A9D5C215C7960FAEE415ED75694C6AFB17BCACA5D99A60A9AA65F217B0BFC53292ACB92BF283FAD0D3621576592CB5BED907C2FA8E9DF794E35E97BEA31BED21FEB401ABB94C44839
310
DCACBF0E1C5DA8DA5B2F4DFFD32AD86F543D9E565E7056502E157C00AD2671CD534549AB752FCA9CDA00677A313F04E51B22FF19E57B300579E3C97EB29F682D92935CEC18CF901B7B54FD8C51F362B56FC72FE0B3C1EAE335EDCCBF5AEC39ADB17DC238973F804BA5E6F6BFE7AF1FB32E523BE9F3BD571418E3631DCA4D48
310
5250CF639223210A9446CA30052EDF057BD35F8329C1ECD84552BF0DC8D18BE7BCE23BFE6BD960AB4A7DE79923A103BEBD80F911CBAA2C60DB19B01CF164A5583B772EE6D3FFA56666CBCDA74DC97724A48F9A58967497E489C4D979006FD7A05E227A1EBDD0F737C623387A9C844D3709995625106D157315F8B8392CD4E0
310
A0B9A720C4BE9829CEF37EA1E13111214D53925356365ADA634861B52519DD27A00AEB808EAF0628E6F435519D446F45CF2C9CF5214F0A15B2F6D06B79DA3EE3CBF7F56780D2F4E7EF73A0F5E5B02A38D07DC852C6B7C1FBB6664213E0C39E3EBA7FF4E1AD23EA2829407C85E586727488B751B2DB9502BC7B228A3FD68B6E
310
A65A22397E690AA8D158D7E404EC8CDA235CC3B7D1898680131CEC2CDF2638C65196279577750F15884AEE19F94199155B92B13297978469D4F8D358DF0AEF7631E28DC8F0D9F437D5D39A83B2231A1D52D543813A824EF8D44BCFF2FA6A31BD1E8DAD87F1CCB526B3879935BF59CDADD5C37479BB1CDD4CA7B3556B516589
310
EF352754B706114D9C885EC9131DE6EFEB43D99AFE2391C2F958179413D7CFEF6B1B6DB1E7600F00DE6E5C67454A339A4BA2E0FBA85ED26F045D454F463DBFCE484C2F90F2E5E3666003662ED8F755951A7D1BECD5B30B550B2785C8E7320B7292A4838DDA71BBC863ED7613CAF659337A3354231D4FF4A182A54904C2898C
310
98B28C4AD0CE056CCF332A80986E571EE9DBC305BB5FEB7E509220A58D25CF042D712A806AC0AD0C657FDEF80D2D9CEAA2EE4D1C76F60BFE74219A06527D6F82DF6412526107381E55E353090704D085B52408A8913C4ED159D79BDA71BB4BC506F4831350EB6F975CD22D69BF7AC49B91A2C0A9DDA3D5CA36AD20FC478E37
310
E61844E2352865EBCB61A275A65283CAAA9DD27703B4102F5AF51EF5F573B75CBB5AD38BC845F7A49F82A0966A49C2E3EA5EA0ECD326CD965F1DB402C6FA8B51A4658C5C5E2EC9E214602E55810345408596591009A82E7E7FFACA19EEA299B14A0081A705CB3296EBC14CDF658DCD336EA6D1136881AAEB87B81AB9EE53D5
310
F5EB8BC8362082DA24122F98680A4E7930C01A0079749CEA14382A0783E5EBA5A10F8C098456A03D6A4AEB6BB881E2513747552A5DB22C7EDAF83BD5528081A365F7FF06504B0304140006080000CC70623B000000000000000000000000350000006662782F41393633353835312D344632462D344230382D423046372D37
310
39314545314133324237412F76657274696365732E62696E504B0304140006080800CC70623BF270F1330600000004000000360000006662782F41393633353835312D344632462D344230382D423046372D3739314545314133324237412F747269616E676C65732E62696E636660600000504B0304140006080000CC7062
310
3B000000000000000000000000370000006662782F41393633353835312D344632462D344230382D423046372D3739314545314133324237412F617474726962757465732E62696E504B0304140006080800CC70623B08DA0BD19000000041010000360000006662782F41393633353835312D344632462D344230382D4230
310
46372D3739314545314133324237412F6469726563746F72792E786D6C858F410AC3201045AF22B36F53E9A60B35CBEEBAE80D244E44489C6234F4F835464A48035D0DF398FF9F8AF63D0E6CC63039F212F8F9020C7D47C6792B21C5FE7403D62A1188E2E60C98D7234A5830286103A55745067B9D86B8A3CF9C7F90C11DE6
310
07FB144396D7B6A82D282E9A152AD114D5EF2CB866EEE831B8EEA07A7BB5A8D7D61A2BAAEB7FD5F70921FF497D00504B0304140006080800CC70623BEDD1DC58FD000000A00100003B0000006662782F41393633353835312D344632462D344230382D423046372D3739314545314133324237412F7265736F75726365732F
310
636F72652E786D6C8D504B6E833010BD0A9A6D65B00922041947112427E8052C33A156828DFCA97AFC9A40A576D7CDCCE87D344F8F9FBFE667F689CE6B6B3A6039850C8DB2A336530731DC4903D95970676DF82583CCC8193B5861107C72362E3BA4AC096842428D1D7107A5F7182053CF7474E0D507CE32973124857FE48B
310
540F3961CEF244279DE03EB81420DB9EAC1384436FA353E879B1B182C7A8C75DA3C7F453DF353A1075D537A7BA6464B8F535A99AE14A9A2BBD90E350DD183B5CFABE3AF262350B1EF4FC9351399401471025A527C218A1E53BAB5A5AB765F5469B96525EACF23FA6B88CFF34456DC2A1DCE36E360F82A5202F42F062ED2BAD
310
579969AFDD8A6F504B010214000A0000080000CC70623B3DEE336E79000000790000001B00000000000000000000000000000000006175746F6465736B2D64657369676E2D7061636B6167652E786D6C504B01021400140006080800CC70623BD486FD9CA0000000F40000001300000000000000000000000000B20000005B
310
436F6E74656E745F54797065735D2E786D6C504B01021400140006080800CC70623B853B8169EB0000007C010000080000000000000000000000000083010000636F72652E786D6C504B01021400140006080800CC70623B55019EA25F0000007C000000070000000000000000000000000094020000636E782E786D6C504B
310
01021400140006080800CC70623BDBABAAF470010000D40300000C00000000000000000000000000180300006662782F636F72652E786D6C504B01021400140006080800CC70623B9C113CC27E0000009D0000000B00000000000000000000000000B20400006662782F636E782E786D6C504B01021400140006080800CC70
310
623B7DF2F77C2A010000120200003100000000000000000000000000590500006662782F41393633353835312D344632462D344230382D423046372D3739314545314133324237412F636F72652E786D6C504B01021400140006080800CC70623BAD7543B64E010000330300003000000000000000000000000000D2060000
310
6662782F41393633353835312D344632462D344230382D423046372D3739314545314133324237412F636E782E786D6C504B01021400140006080800CC70623BE75B7789680500003C10000034000000000000000000000000006E0800006662782F41393633353835312D344632462D344230382D423046372D3739314545
310
314133324237412F6F626A656374732E786D6C504B01021400140006080000CC70623B0000000000000000000000003500000000000000000000000000280E00006662782F41393633353835312D344632462D344230382D423046372D3739314545314133324237412F76657274696365732E62696E504B01021400140006
310
080800CC70623BF270F133060000000400000036000000000000000000000000007B0E00006662782F41393633353835312D344632462D344230382D423046372D3739314545314133324237412F747269616E676C65732E62696E504B01021400140006080000CC70623B0000000000000000000000003700000000000000
310
000000000000D50E00006662782F41393633353835312D344632462D344230382D423046372D3739314545314133324237412F617474726962757465732E62696E504B01021400140006080800CC70623B08DA0BD1900000004101000036000000000000000000000000002A0F00006662782F41393633353835312D344632
310
462D344230382D423046372D3739314545314133324237412F6469726563746F72792E786D6C504B01021400140006080800CC70623BEDD1DC58FD000000A00100003B000000000000000000000000000E1000006662782F41393633353835312D344632462D344230382D423046372D3739314545314133324237412F7265
310
736F75726365732F636F72652E786D6C504B0506000000000E000E0080040000641100000000
  0
XRECORD
  5
610
102
{ACAD_REACTORS
330
1A
102
}
330
1A
100
AcDbXrecord
280
     1
102
MATERIAL
148
0.0
149
0.0
149
0.0
 93
        0
 94
       63
282
     0
 72
     1
 77
     1
171
     1
175
     1
179
     1
273
     0
  0
XRECORD
  5
1B
102
{ACAD_REACTORS
330
1A
102
}
330
1A
100
AcDbXrecord
280
     1
 70
     1
 90
429727718
  1
30362254-06B7-45E0-A893-8CFA70E3D6BC
310
504B03040A0000080000CC70623B3DEE336E79000000790000001B0000006175746F6465736B2D64657369676E2D7061636B6167652E786D6C3C3F786D6C2076657273696F6E3D22312E302220656E636F64696E673D227574662D3822203F3E3C666F726D6174733E3C666F726D61743E687474703A2F2F736368656D612E
310
6175746F6465736B2E636F6D2F64657369676E2D7061636B6167652F323030393C2F666F726D61743E3C2F666F726D6174733E504B0304140006080800CC70623BD486FD9CA0000000F4000000130000005B436F6E74656E745F54797065735D2E786D6C7D8EC10E82300C865F65E91D8A1E8C310C0EEA1BF002731658846E
310
D98AC1B77784ABF1D8FE5FBFBF75BBCE937A534CCEB38643598122B6FEE978D0B0485F9C41B54DDD7D022595594E1A469170414C76A4D9A4D207E29CF43ECE46F218070CC6BECC4078ACAA135ACF422C856C0E68EA1BF5669944DDD7BCDE7B1F8E415D77AECB980613C2E4AC91FC167A2B244592486606FC29C8FD7F045B9A
310
EF7053A7E60B504B0304140006080800CC70623B1EC5D7A3EB0000007C01000008000000636F72652E786D6C8D90416EC3201045AF82665B6103C6756C6122AB4D4ED00B204C5C94182C03558F5F9C3852BBEB6A467FFE9B197D71FC9E6FE8CBACC17AD7032D0820E3B41FAD9B7A48F1820F808E52ACDEC75F36404ECDA687
310
4D0629A6D5A76597B477D1B89855E747B38B2A041301E95B6E7A08FAD3CCAA50296647B8168BD2573599823EBB0CA76447F43862C7BCCF5EAC59410E4DDD9C7973C2755553CCCFA4C603E3040F1565ED3B1FDE4E432BCA0D9622DAF9795FAF464533826484B498524CD807E51D79ED187F21878E10516EF63F505AC67F42C9
310
BA58B1FDDD071640D2FCC87D2045B96591CB3DA85CB7DCE40F504B0304140006080800CC70623B55019EA25F0000007C00000007000000636E782E786D6C4DCB3B0E80201045D1AD90E915ED2CF8AC45050C11660C8261F98AB1B07AC9C97D42D718D865D3E909258CFD00CCE24AC6E326A164D74DC0B4128928FF32603847
310
2BA13128B1252AC747C6BAB984FC68F0B87FE8960A5C09FE86CFB69FBA01504B0304140006080800CC70623B8C9102E971010000D40300000C0000006662782F636F72652E786D6CC5535B6E833010BC8AE5DF0A6C08340F1947A84D4ED00B38C6A128602363A31CBFCB234A53A551FA553EC09AD9F5CE8C31DB9E9B1AF5CA
310
7695D1198E428A91D2D214952E33ECDD315861B4E5CC1AE3BE9561A445A3323CC098B3D21ADFCE9034DA29ED00D5A6503328BA4E398C640D8B0C77F253352214DE4145770A5B214FA2546114020D759C75CE8200340D19DE981F0F6746269C33EFAB6266AB02A655C74A59CCF365BADC27CB5D902ED22848F6340DF238A141
310
BE88E2F57B92BFEDF23523433367AE6A2EEAA455C2A902F398D2751045018D3FA264435F3771F242571B4A1919CA6F9A7C5B3CD9E42BED16F12C776AEB308F40C848FC700B1139D4891EF410CEC810227CC6846F8386402064270EF5C5C709A05E49676C024C61FC95EA45ED154CA5211D1FF4FB8291A913A68E9B83EBBB33
310
E2A7673CDE118E5AE8124C0807CB8377834E366998436B950D7A7746DAD846D4CFD978E0F04FD455FC5D49D2D4C6FE9722321F10997F0F32DC47FE05504B0304140006080800CC70623BFFEA85907E0000009D0000000B0000006662782F636E782E786D6C4DCCD10A83201886E15B91FFDC95D95A811AB6F23E625948A6C3
310
E9D8E5AF46073BFAE0E1E365ED67B3E8ADC3CB78C7815C7240DA3DFC64DCC221C519D7805AC182F7F1EF06C88D9BE6703008B6049F9E274D7A1E938DBB5AE3D6131B2589BA0D3D965551E0B2EA732C9B9A624AAEB41E3A557677029960D9AFB4EF11165F504B0304140006080800CC70623B4FEEA4082C0100001202000031
310
0000006662782F39464131463745442D413632322D343644302D413938332D3331353338454246344243312F636F72652E786D6C8D515B6EC32010BC0AE2AB55850DD871ED0813254D72825EC00192A2C460F1A872FC42ED48ED5F7E00CDCECCCEB26C731F6FE05B39AFADE921293004CA082BB5B9F43086336A21D870E6AC
310
0D7F68109861543DCC30E4ECE26C9C164858139409093556AA051CBC570102714B8F1E7AF1A5C6A11862480C7F2DA6415C878B2A4891CA89C7990F2E050073937C42DE1DB7E4F87ED8A36D4329AA9B3D46DBAEAD504556557BD81DEBDD0761E52CE42C462D17B996298E3E6BE59E35C962CE821E1FF18553435012728A7187
310
0841987E927A8D9B35ADDF70BBC6989599FE4F1427F9A4286A132ABAC49D651EF234CD5CE04CDA78BA3DC2A8FB645D00B9DF8B57E215725C60BCA2A463E54C4CE327C7A65E1C7DB02E7DEFCBF594B864C5CA6CDBD49C957943E9FA5D5FBAF336F90F504B0304140006080800CC70623BAD7543B64E01000033030000300000
310
006662782F39464131463745442D413632322D343644302D413938332D3331353338454246344243312F636E782E786D6CD593CD6EC32010845F0571AD6CE3D48AD20813A9873E410FBD12D82434182C7EAAE6EDBB2424CD25871E7B41D6EC30B3FA84F9E67BB2E40B4234DE8DB46F1925E094D7C6ED479AD3AE5951B2113C
310
789FEE6C943839C1488B4C05DF079FE72A69D8C96C13AAD6B8631503449F83828872B949AC57D26200B826A308D316B4064D6E46FCDA41C05550DC9E483A00797BFD207EFB092A45DE9514C1BBD22178396BD39D891265658C238DEA00936C654E5E433CB65A26D9F6EDB5EBC14EBF49A45CB856E66048291F6939A9A81BB5
310
C8917738143CA680F4AA299D66A042CEB3354A2684DC9D8D178FE0D9B8B41CAAD720F880EE7EF93C0C18769E099ECC04D5A102C8049A8A05632F4DDF376CF1DE0F6BB65C2F8627B65A33C6BB62177CEBBDAD973006829F89F22E814B54F4BC2BE347F8AA8F681390B50FA73F804400B5F542E796F19FF974E7F78DB802FE05
310
E207504B0304140006080800CC70623B16AB87BA640500003C100000340000006662782F39464131463745442D413632322D343644302D413938332D3331353338454246344243312F6F626A656374732E786D6CAD575B6FA33818FD2B887DE6924B3BED8A326A92B68A663B534DD4D13E548A0C38942D60649B369D5FBFC7
310
600890A493BDE42160637FD7F31D7FF63E6FB3D478A55C242CBF3247B66B1A340F5994E4F19559CA8D75611A9F7D8F33263BCB4C232719BD32D5B4E97B316765A1A722BA21652A07B3B7B33F0D11D29C9A46981221AE4C113ED38CD8A4942CA2E2C58E882476BCD9DA23BB5ED8171B73523C0F841684D35CC252CCE79062D4
310
468DFA43D7747CCF51DF7D4FFDEB5593E3AB9CCA9FBEFE241792E4E19EB28198C968BAB8199F5D5A67D3E9C49A9E8F47D6EC76B6B0469F26EEFC7C3EBFBCBEB98462213924694B38DD98FE1D62C393D073EA4FADC5DAF04326852CCF6958F90F0F2B9BB5C48816348F90C7840A68EB78EDF68723159BCEE7891A6B95DDE9D3
310
BCEAEEE8086A6C6F9E5D4B59F0175C10A7A0820BAA5055C7473B5AE3CFDD452D602CD5DF12616444529E90D448938013FE6EFA58AA96F85E4F8C42275708571E98FE6827AF6B2B4AE3D7D83D64E5A64C53054DD3AF90BD06FEA9149565C94FCA0F6B834DC85599E4F2423B24DF0B6AFA979E534DFA9E7A4CC6FA631D486393
310
921829879BF5D781A373557BCB85E97FB90DB62B558F8795179C15944B051F40AB495CF35451D26A4727654E6D8033BD98EF82F21D91FF8AF2DD9982BCF1643BDD4EB516C9492E368C67C88DED563FC36D5EACF66DFF057C3658BDBFA69DF9578B3DA735B64F18C7F20770A9D45CFCF7FCF563D6456A277DBEF78A02637CA2
310
43B90A490AEAB94F72244481D24819A6C0E59B606BFA4B3025981DBB48EAB701D97BF19C577CC77F2D1B6C55A9EF3C732474C0B727303F625995056C3B02963D9EAC146BE78EC5FCEC7FA999EBC5EACBAAE41B12D27B4D2C0BBA49F244E2ECDC81B76B502F113D8F5EE8FB1BE3111CDD4FC2AA9B844CAB1288B68AB90A7CDC
310
1C166AB0D3DC5310625FCC14E779BFD0709F8890A629C9292B1B2DED31A4B0DA928CEE135085754027E3018A397D4D5427D15BD1330B677DC8934285AC3DF45A9EB68FF8F2B8FC0A509AFEECFD0FF2DE25CC6047F7214B195F07EFEB9A094D800F7BFAE8FED187B78EA8A3A400F115961BCAD1215E47C966530AF0EE8128FE
310
58CEBB996A8964FFA529A046635D9353B0336A8F700DDF46271A024E70B0B37C9DE01847591E54DED53D54202AB947E4076556AC49C6CA5C9E1226B7F1A7B1BE15DEED62C41B91E1B3E9AFAAA735036547343A925075041DF0A9979E893B391F8FCFA6967B3EFB644DCF6E5CEBFAE272625DCC6FAF3FB93793C5F90CE1EF57
310
407342756B10D1C489E8953CD1617E5CEECAD6F4EF8914CE5D5D504E5C3F1F9736DA62CFC11E00BCDDB8CC8A9466349744C1F75EBDA4DF09BA8A9E8C7A7E9991989E20E5DBDD6A6003664ED8F7A04A8DBE0DF6EAD9B9AA858342E47399053949D2C146EDB85DE4B176BB0965FBAC19BD19AA918E27FA50C1D22402E144464C
310
59462568E704B6E71915404CB72B8FF4EDE184DDAF753F284990D2C6926782963815403548A70C657FDEF80D2D9CEAA2AE4C1C76F60BFE74219A06527D6582DF6412526107381E55E353090704D085B52408D0933C4ED159D79BDA71BB4BC506F4831350EB6F979CD22D69BF7AC49B91A2C0A9DDA3D5CA36AD20FC478E37E6
310
1844E2352865EBCB6EA275A652E3836BE04EFB400BF1A2556F515F1FBB35B2AB35BD889C744FFA1004B5544B121E57F70215746DD2F5E2C1412B602CBF19455AC6C8E5E9922C4E01E65215385004546899059180EAFCF7A707CE7017CD8CDB0410789AB32C63B91E5CEBBBACB17AC6CD347A022D5075FD106377347AAABA7E
310
7D11590744509B44E205134DC1290F06580320F78E537D3D73540E06CB970B431F185308AD40BBD794D6D77003C5A36E8EAA54BA64597CD8F83BD552A080A365F7FF06504B0304140006080000CC70623B000000000000000000000000350000006662782F39464131463745442D413632322D343644302D413938332D3331
310
353338454246344243312F76657274696365732E62696E504B0304140006080800CC70623BF270F1330600000004000000360000006662782F39464131463745442D413632322D343644302D413938332D3331353338454246344243312F747269616E676C65732E62696E636660600000504B0304140006080000CC70623B
310
000000000000000000000000370000006662782F39464131463745442D413632322D343644302D413938332D3331353338454246344243312F617474726962757465732E62696E504B0304140006080800CC70623B08DA0BD19000000041010000360000006662782F39464131463745442D413632322D343644302D413938
310
332D3331353338454246344243312F6469726563746F72792E786D6C858F410AC3201045AF22B36F53E9A60B35CBEEBAE80D244E44489C6234F4F835464A48035D0DF398FF9F8AF63D0E6CC63039F212F8F9020C7D47C6792B21C5FE7403D62A1188E2E60C98D7234A5830286103A55745067B9D86B8A3CF9C7F90C11DE607
310
FB144396D7B6A82D282E9A152AD114D5EF2CB866EEE831B8EEA07A7BB5A8D7D61A2BAAEB7FD5F70921FF497D00504B0304140006080800CC70623B0D6EF93BFE000000A00100003B0000006662782F39464131463745442D413632322D343644302D413938332D3331353338454246344243312F7265736F75726365732F63
310
6F72652E786D6C8D50596E833010BD0A9ADFCA60B334011947A8694ED00B586642AC041B79A97AFC9A40A5F6AF3F33A3B7689E1E3F7DCD8FEC139DD7D6F4C0720A191A65476DA61E62B892236427C19DB5E1970C322367EC618541F0C9D9B8EC90B226A009093576C41D94DE63804C3DD2D18357379C652E63480A7FCF17A9
310
EE72C29CE5894E3AC17D702940B63D59270887DE46A7D0F36263058F518FBB468FE9A7BE6A7420864373B8D4873369AA8691FA421B3294352543C5CAF65C0F6FEF43CB8BD52C78D0F34F46E550061C419494B6843142CB0F5677F4B52BEB177AEC28E5C52AFF638ACBF84F53D42654E51E77B379102C05791282176B5F693D
310
CB4C7BED567C03504B010214000A0000080000CC70623B3DEE336E79000000790000001B00000000000000000000000000000000006175746F6465736B2D64657369676E2D7061636B6167652E786D6C504B01021400140006080800CC70623BD486FD9CA0000000F40000001300000000000000000000000000B20000005B
310
436F6E74656E745F54797065735D2E786D6C504B01021400140006080800CC70623B1EC5D7A3EB0000007C010000080000000000000000000000000083010000636F72652E786D6C504B01021400140006080800CC70623B55019EA25F0000007C000000070000000000000000000000000094020000636E782E786D6C504B
310
01021400140006080800CC70623B8C9102E971010000D40300000C00000000000000000000000000180300006662782F636F72652E786D6C504B01021400140006080800CC70623BFFEA85907E0000009D0000000B00000000000000000000000000B30400006662782F636E782E786D6C504B01021400140006080800CC70
310
623B4FEEA4082C0100001202000031000000000000000000000000005A0500006662782F39464131463745442D413632322D343644302D413938332D3331353338454246344243312F636F72652E786D6C504B01021400140006080800CC70623BAD7543B64E010000330300003000000000000000000000000000D5060000
310
6662782F39464131463745442D413632322D343644302D413938332D3331353338454246344243312F636E782E786D6C504B01021400140006080800CC70623B16AB87BA640500003C1000003400000000000000000000000000710800006662782F39464131463745442D413632322D343644302D413938332D3331353338
310
454246344243312F6F626A656374732E786D6C504B01021400140006080000CC70623B0000000000000000000000003500000000000000000000000000270E00006662782F39464131463745442D413632322D343644302D413938332D3331353338454246344243312F76657274696365732E62696E504B01021400140006
310
080800CC70623BF270F133060000000400000036000000000000000000000000007A0E00006662782F39464131463745442D413632322D343644302D413938332D3331353338454246344243312F747269616E676C65732E62696E504B01021400140006080000CC70623B0000000000000000000000003700000000000000
310
000000000000D40E00006662782F39464131463745442D413632322D343644302D413938332D3331353338454246344243312F617474726962757465732E62696E504B01021400140006080800CC70623B08DA0BD190000000410100003600000000000000000000000000290F00006662782F39464131463745442D413632
310
322D343644302D413938332D3331353338454246344243312F6469726563746F72792E786D6C504B01021400140006080800CC70623B0D6EF93BFE000000A00100003B000000000000000000000000000D1000006662782F39464131463745442D413632322D343644302D413938332D3331353338454246344243312F7265
310
736F75726365732F636F72652E786D6C504B0506000000000E000E0080040000641100000000
  0
XRECORD
  5
611
102
{ACAD_REACTORS
330
F
102
}
330
F
100
AcDbXrecord
280
     1
102
MATERIAL
148
0.0
149
0.0
149
0.0
 93
        0
 94
       63
282
     0
 72
     1
 77
     1
171
     1
175
     1
179
     1
273
     0
  0
XRECORD
  5
10
102
{ACAD_REACTORS
330
F
102
}
330
F
100
AcDbXrecord
280
     1
 70
     0
 90
1673772943
  1
ECE7A1D2-D628-4531-984C-D00F80459256
310
504B03040A0000080000CC70623B3DEE336E79000000790000001B0000006175746F6465736B2D64657369676E2D7061636B6167652E786D6C3C3F786D6C2076657273696F6E3D22312E302220656E636F64696E673D227574662D3822203F3E3C666F726D6174733E3C666F726D61743E687474703A2F2F736368656D612E
310
6175746F6465736B2E636F6D2F64657369676E2D7061636B6167652F323030393C2F666F726D61743E3C2F666F726D6174733E504B0304140006080800CC70623BD486FD9CA0000000F4000000130000005B436F6E74656E745F54797065735D2E786D6C7D8EC10E82300C865F65E91D8A1E8C310C0EEA1BF002731658846E
310
D98AC1B77784ABF1D8FE5FBFBF75BBCE937A534CCEB38643598122B6FEE978D0B0485F9C41B54DDD7D022595594E1A469170414C76A4D9A4D207E29CF43ECE46F218070CC6BECC4078ACAA135ACF422C856C0E68EA1BF5669944DDD7BCDE7B1F8E415D77AECB980613C2E4AC91FC167A2B244592486606FC29C8FD7F045B9A
310
EF7053A7E60B504B0304140006080800CC70623BD9DDAED0EC0000007C01000008000000636F72652E786D6C8D90416EC3201045AF82665B61836D9CD8C2444DD39CA01740405C94182C03558F5F9C3852BBEB6A467FFE9B197D7EF89E6EE8CB2CC17A37002D0820E394D7D68D03A478C17B4007C117EFE32F1B20272733C0
310
2A83E0E3E2D3BC49CABB685CCCAAF3DA6CA20CC14440EA969B0182FA34932C648AD911AEC52CD5558EA6A0CF2EC329598D1E47ACCEFBECC59A050463A7EA5833865FEBDD0E37353BE3EE8DBDE3F6786A48D375FBF6CC78B9C282473B3DEFABC5C86834888A900E538A49F5419B9EB47DD5BC907D4F082F57FB1F28CDFA9F50
310
B22ED6D5F6EE030B20687EE43E10BC5CB3C8E51E54AE6B6EE207504B0304140006080800CC70623B55019EA25F0000007C00000007000000636E782E786D6C4DCB3B0E80201045D1AD90E915ED2CF8AC45050C11660C8261F98AB1B07AC9C97D42D718D865D3E909258CFD00CCE24AC6E326A164D74DC0B4128928FF326038
310
472BA13128B1252AC747C6BAB984FC68F0B87FE8960A5C09FE86CFB69FBA01504B0304140006080800CC70623BA24EB22D72010000D40300000C0000006662782F636F72652E786D6CC5535B6E833010BC8AE5DF0A6C5E49888CA3A6694ED00B38E05014B091B1518EDFE511A5A9D228FD2A1F60CDEC7A67C6986DCE4D8D7A
310
69BA4AAB0C073EC548AA5C17952A33ECECD15B61B4E1CC686DBF9561A44423333CC098B3D268D7CE50AE9595CA02AA74216750749DB418E5352C32DCE59FB211BE70162ABA93DF8AFC244AE9073ED050C759670D0840D390E18DF9F1706664C23973AE2A66B62A605A75ACA4C13C4976E1364A12EF355A2EBD384AF65EFA96
310
BC7B8BED2EA6719AAE16FB8491A199335B351775B991C2CA02F390D2D40B028F861F41BCA68B7518BFD0D59A524686F29B26D7164F36B94AD9289CE54E6D1DE6010819891F6E21228B3AD1831EC219194284CF98F06DD01008846CC5A1BEF83801D4CBDC6A1303536877A57A513B0953A94FC707FDBE6064EA84A9E3E6E0FA
310
EE8CF0E9198F7784A316AA0413C2C2F2E0ECA0934D1AE6D05A69BCDE9E91D2A611F573361E38FC1375157F5752AE6B6DFE4B11990F88CCBF0719EE23FF02504B0304140006080800CC70623B408A7D3B7C0000009D0000000B0000006662782F636E782E786D6C4DCCD10A83201886E15B91FFDC552A92A0064DBC8F581632
310
D3703A76F9ABD1C18E3E78F878E5F0D9027ABBFCF2292AE86E2D20171F69F6715550CB827B40839639A5F2770314A7CD293819B45C73AAFB45B35BA61ACAA1C1C7E7855C58C15BC331339661262CC762340413D68D77DA5B42298546CBE6573AF60CEB2F504B0304140006080800CC70623B449FB9BD290100001202000031
310
0000006662782F36394639363044362D344446342D343946362D394244322D3234314243333846323333332F636F72652E786D6C8D515B6EC32010BC0AE22B55850D98B871848994463E412FE002495162B07854397EA176A4F62F3F2C9A9D991D587EB84F37F0AD7D30CEF6905418026DA553C65E7A98E219ED203808EE9D
310
8B7F6810D871D23D2C3014FCE25D9A57483A1BB58D19B54EE9151C43D0110279CB971E06F9A5A7B11A53CC8C70ADE6515EC78BAE4895DB992778883E0700CB907242D17643D7E2538BD869608875438BBAE38922CAC8F1BDD90DB4691A5E2F42C153326A951B95E398B3D1FE599322163C9AE9115F7A3D46ADA0A018778810
310
84E907617BDCEE297BC5BB3DC6BC2EF47FA234AB2745C9D8D8D035EE220B50105E2F0DC1954B9FB747187D9F9D8FA0CCDB042D5FA0C015C65B42DF78BD10F3F3B363CB56C7109DCFDFBBB97E662ED92EB62D13BC2E1BCAE5777DB9966D8A1F504B0304140006080800CC70623BAD7543B64E01000033030000300000006662
310
782F36394639363044362D344446342D343946362D394244322D3234314243333846323333332F636E782E786D6CD593CD6EC32010845F0571AD6CE3D48AD20813A9873E410FBD12D82434182C7EAAE6EDBB2424CD25871E7B41D6EC30B3FA84F9E67BB2E40B4234DE8DB46F1925E094D7C6ED479AD3AE5951B2113C789FEE
310
6C943839C1488B4C05DF079FE72A69D8C96C13AAD6B8631503449F83828872B949AC57D26200B826A308D316B4064D6E46FCDA41C05550DC9E483A00797BFD207EFB092A45DE9514C1BBD22178396BD39D891265658C238DEA00936C654E5E433CB65A26D9F6EDB5EBC14EBF49A45CB856E66048291F6939A9A81BB5C89177
310
38143CA680F4AA299D66A042CEB3354A2684DC9D8D178FE0D9B8B41CAAD720F880EE7EF93C0C18769E099ECC04D5A102C8049A8A05632F4DDF376CF1DE0F6BB65C2F8627B65A33C6BB62177CEBBDAD973006829F89F22E814B54F4BC2BE347F8AA8F681390B50FA73F804400B5F542E796F19FF974E7F78DB802FE05E20750
310
4B0304140006080800CC70623B8D05915C650500003B100000340000006662782F36394639363044362D344446342D343946362D394244322D3234314243333846323333332F6F626A656374732E786D6CAD575B6FA33814FE2B887D06429276DA1565D4266D158D3A339A6846FB502932E050B66023DB74D2FDF5FB190C01
310
9276B2973C046C8ECFF53B17071F77456EBD502133CEAE6CDF9DD81665314F32965ED995DA3A17B6F5310C04E7AA47665B8C14F4CAD6DB7618A48257A5D94AE89654B91AEDDEDDFC61C998326A5B714EA4BCB265FC440BE2924AF184CA6737218AB8E976E7FA6E4338649B0A523E8D98964450A6A029F619B8588D52FE7039
310
B1BD30F0F4F730D0FF866AF6369557DB33949F31A9088B0F848DD8CCFCF9F2767A76E99CCDE733677E3EF59D9BBB9BA5E37F984D16E78BC5E5F5ED25044B25C0C96822E8D60EEFE11B91C581D77CEA34368A1F5329E68CD1B8B61F16D63A1B8E092D294B10C78C4A48EB593D192E7DED9BDEE7995E1B91FDEDD3ACEA9FE831
310
6A756F9F7D4D79F4274C90A7A04248AA51D5F8C718DAE06FB2F75AC4796EBE65D22A88A22223B995679120E2D50E41AA49C260C046A35368846B0BECD0DFF3EBEB8AD4F835768F69B9ADF25C43D30E6B646F807FAA64AD59F61715C7A54127C4AACA98BA3006A9D792DAE165E0D59B61A01FB3A9F9D838D2DAE62445C86166
310
F37564E842E7DE6A69879FEEA2DD5AE7E371E1A5E025154AC307D06A03D73EB5978C58FFA4C8E9033066E0F3BD53BEC1F39F91BE7B55103791EDE6BBB991A2046172CB4581D8B893FA674DDA17A77B3B7C413D1B511FD2743BFF8A38F03A658705E3ADF8015C3A3417FF3D7E439FF591DA0B5F18BC20C1B8981957AE6392A3
310
F43C640C01D1A0B4728E2DD4F26DB4B3C3152A252A3B4E913CEC1C72F012782FF88EFF8637AA552DBEF76408E8A8DE9E50F9E1CB3A2DA0DB1B6039A893B56063DC5B3E3FFB5F72E67AB9FEB4AEC496C4F4C1149625DD662C53E89D7BF0F6151A046260D1337DFDC94502430F83B0EE07A130A224BCAD7DAE1D9FB6CD422FF6
310
920702629C4BB9AE79C12F243C6432A6794E18E5552BA56B431AAB5D91317302B2B071E86C3A42B1A02F999E24061403B5D0EB639195DA655DD3EBEAB4FB862DDF579F014AD0E73C22F99E28DA57FB98E75C6CA2D74D53086D600F4786E0FE3144B771A8A7B900F03594DB8A633CBC49B2EDB69228BB479CF863B5E807AAAB
310
23872F6DFEB4129B949CA33823F58830E86D65621E10047D9DB34D862E8EAC3C2ABC2F7B2C40D67CDFE01F5545B92105AF983AC54D93D69E56FB8E797F88913F898A9FEC705D3F9D1B54EC8426FB500D40A03BD0119B06E1B95DDC7EB8F6975367793EBD70E66733DFB9BC982F9CE564727731999F5D4ECFCE3B8D6A4DC2A0
310
6D50FD148437D110834A64C6CDDF57FBACB5C307A2A477DFE4939736CFEF2B175371E0E10CF0DD1D5C15654E0BCA14D1E87DD02FF93782A162C0A3D95F1524A52770F972BF1EE9809D13CE7DD599467F8ECE9ADD85CE85A34CD45355448C64F9E8A031DC2D596ACC6E5DD93D9B82DE2EF5CAF81363A8E47996A0DE24564A79
310
4115AACE09C55E14540231FDA13C319787134EBF34E3A022514E5B4D9E0826E25C02D5805B15ABE1BEF51B26383D445DD9E875EE33FE4C22DA16427D65A3BCA92CA6D28DD01DF5DC53330704308475351050232CCD31583787BA75774AFB06E5070DD0C8EF484E19968C5D83BA5B90B244D31E54D55A372320FE4786B7EA58
310
44E135AA5467CB7EA333A61683CC6A8C3257034C10CF46F40EF9F5BE59BE5BD30C3C72D235E95D10345C1D45445A5F0BB47E46A5EBE5570F9380B5FA629579952296A773720405982B9DE04011506178964401AA8BDF1FBF0A8EAB6861DD6580C0E38217056766716DAEB2D6FA0917D3E4116581EADB879C4E7CFFB11EFACD
310
3D641311495D92C8676CB409A72D18610D803CE8A626049E8EC1887CB5B44CC39883690DDA8399B4B9855B481E7D71D4A9D22F96E5BB73BF5793020C02137BF837504B0304140006080000CC70623B000000000000000000000000350000006662782F36394639363044362D344446342D343946362D394244322D32343142
310
43333846323333332F76657274696365732E62696E504B0304140006080800CC70623BF270F1330600000004000000360000006662782F36394639363044362D344446342D343946362D394244322D3234314243333846323333332F747269616E676C65732E62696E636660600000504B0304140006080000CC70623B0000
310
00000000000000000000370000006662782F36394639363044362D344446342D343946362D394244322D3234314243333846323333332F617474726962757465732E62696E504B0304140006080800CC70623B08DA0BD19000000041010000360000006662782F36394639363044362D344446342D343946362D394244322D
310
3234314243333846323333332F6469726563746F72792E786D6C858F410AC3201045AF22B36F53E9A60B35CBEEBAE80D244E44489C6234F4F835464A48035D0DF398FF9F8AF63D0E6CC63039F212F8F9020C7D47C6792B21C5FE7403D62A1188E2E60C98D7234A5830286103A55745067B9D86B8A3CF9C7F90C11DE607FB14
310
4396D7B6A82D282E9A152AD114D5EF2CB866EEE831B8EEA07A7BB5A8D7D61A2BAAEB7FD5F70921FF497D00504B0304140006080800CC70623BCA768048FE000000A00100003B0000006662782F36394639363044362D344446342D343946362D394244322D3234314243333846323333332F7265736F75726365732F636F72
310
652E786D6C8D50596E833010BD0A9ADFCA60D600328E9AA639412F609909B1126CE4A5EAF16B0295DABFFECC8CDEA2797AECF8353F924FB44E193D409E5248504B332A3D0D10FC95B4901C39B3C6F85F3248B49871801506CE266BC2B243D2688FDA47549B11775038871E12F988C7004EDE7016A9083E2ADC3D5D84BC8B09
310
D33C8D74D471E6BC8D0192EDC93A815B742658898E651BCB59086ADC356A8C3FD555A1055ED7E7E254D615792D0F075295F585746FF53B694EE78A565DD736979A65AB9933AFE69F8CD2A2F038022F28ED489E135A7CE4554F9BBEA85E68DB53CAB255FEC71496F19FA6A0B42F8B3DEE6673C0F318E4497096AD7DC5F52C33
310
EEB55BFE0D504B010214000A0000080000CC70623B3DEE336E79000000790000001B00000000000000000000000000000000006175746F6465736B2D64657369676E2D7061636B6167652E786D6C504B01021400140006080800CC70623BD486FD9CA0000000F40000001300000000000000000000000000B20000005B436F
310
6E74656E745F54797065735D2E786D6C504B01021400140006080800CC70623BD9DDAED0EC0000007C010000080000000000000000000000000083010000636F72652E786D6C504B01021400140006080800CC70623B55019EA25F0000007C000000070000000000000000000000000095020000636E782E786D6C504B0102
310
1400140006080800CC70623BA24EB22D72010000D40300000C00000000000000000000000000190300006662782F636F72652E786D6C504B01021400140006080800CC70623B408A7D3B7C0000009D0000000B00000000000000000000000000B50400006662782F636E782E786D6C504B01021400140006080800CC70623B
310
449FB9BD290100001202000031000000000000000000000000005A0500006662782F36394639363044362D344446342D343946362D394244322D3234314243333846323333332F636F72652E786D6C504B01021400140006080800CC70623BAD7543B64E010000330300003000000000000000000000000000D20600006662
310
782F36394639363044362D344446342D343946362D394244322D3234314243333846323333332F636E782E786D6C504B01021400140006080800CC70623B8D05915C650500003B10000034000000000000000000000000006E0800006662782F36394639363044362D344446342D343946362D394244322D32343142433338
310
46323333332F6F626A656374732E786D6C504B01021400140006080000CC70623B0000000000000000000000003500000000000000000000000000250E00006662782F36394639363044362D344446342D343946362D394244322D3234314243333846323333332F76657274696365732E62696E504B010214001400060808
310
00CC70623BF270F13306000000040000003600000000000000000000000000780E00006662782F36394639363044362D344446342D343946362D394244322D3234314243333846323333332F747269616E676C65732E62696E504B01021400140006080000CC70623B00000000000000000000000037000000000000000000
310
00000000D20E00006662782F36394639363044362D344446342D343946362D394244322D3234314243333846323333332F617474726962757465732E62696E504B01021400140006080800CC70623B08DA0BD190000000410100003600000000000000000000000000270F00006662782F36394639363044362D344446342D
310
343946362D394244322D3234314243333846323333332F6469726563746F72792E786D6C504B01021400140006080800CC70623BCA768048FE000000A00100003B000000000000000000000000000B1000006662782F36394639363044362D344446342D343946362D394244322D3234314243333846323333332F7265736F
310
75726365732F636F72652E786D6C504B0506000000000E000E0080040000621100000000
  0
XRECORD
  5
618
102
{ACAD_REACTORS
330
617
102
}
330
617
100
AcDbXrecord
280
     1
102
RTVSPropertyOp0
 70
     1
102
RTVSPropertyOp1
 70
     1
102
RTVSPropertyOp2
 70
     1
102
RTVSPropertyOp3
 70
     1
102
RTVSPropertyOp4
 70
     1
102
RTVSPropertyOp5
 70
     1
102
RTVSPropertyOp6
 70
     1
102
RTVSPropertyOp7
 70
     1
102
RTVSPropertyOp8
 70
     1
102
RTVSPropertyOp9
 70
     1
102
RTVSPropertyOp10
 70
     1
102
RTVSPropertyOp11
 70
     1
102
RTVSPropertyOp12
 70
     1
102
RTVSPropertyOp13
 70
     1
102
RTVSPropertyOp14
 70
     1
102
RTVSPropertyOp15
 70
     1
102
RTVSPropertyOp16
 70
     1
102
RTVSPropertyOp17
 70
     1
102
RTVSPropertyOp18
 70
     1
102
RTVSPropertyOp19
 70
     1
102
RTVSPropertyOp20
 70
     1
102
RTVSPropertyOp21
 70
     1
102
RTVSPropertyOp22
 70
     1
102
RTVSPropertyOp23
 70
     1
102
RTVSPropertyOp24
 70
     1
102
RTVSPropertyOp25
 70
     1
102
RTVSPropertyOp26
 70
     1
102
RTVSPropertyOp27
 70
     1
102
RTVSPropertyOp28
 70
     1
102
RTVSPropertyOp29
 70
     1
102
RTVSPropertyOp30
 70
     1
102
RTVSPropertyOp31
 70
     1
102
RTVSPropertyOp32
 70
     1
102
RTVSPropertyOp33
 70
     1
102
RTVSPropertyOp34
 70
     1
102
RTVSPropertyOp35
 70
     1
102
RTVSPropertyOp36
 70
     1
102
RTVSPropertyOp37
 70
     1
102
RTVSPropertyOp38
 70
     1
102
RTVSPropertyOp39
 70
     1
102
RTVSPropertyOp40
 70
     1
102
RTVSPropertyOp41
 70
     1
102
RTVSPropertyOp42
 70
     1
102
RTVSPropertyOp43
 70
     1
102
RTVSPropertyOp44
 70
     1
102
RTVSPropertyOp45
 70
     1
102
RTVSPropertyOp46
 70
     1
102
RTVSPropertyOp47
 70
     1
102
RTVSPropertyOp48
 70
     1
102
RTVSPropertyOp49
 70
     1
102
RTVSPropertyOp50
 70
     1
102
RTVSPropertyOp51
 70
     0
102
RTVSPropertyOp52
 70
     0
102
RTVSPropertyOp53
 70
     1
102
RTVSPropertyOp54
 70
     1
102
RTVSPropertyOp55
 70
     1
102
RTVSPropertyOp56
 70
     1
102
RTVSPropertyOp57
 70
     1
102
RTVSPost2010Prop28
280
     1
102
RTVSPost2010PropOp28
 70
     1
102
RTVSPost2010Prop29
280
     1
102
RTVSPost2010PropOp29
 70
     1
102
RTVSPost2010Prop30
280
     0
102
RTVSPost2010PropOp30
 70
     1
102
RTVSPost2010Prop31
280
     0
102
RTVSPost2010PropOp31
 70
     1
102
RTVSPost2010Prop32
280
     0
102
RTVSPost2010PropOp32
 70
     1
102
RTVSPost2010Prop33
280
     0
102
RTVSPost2010PropOp33
 70
     1
102
RTVSPost2010Prop34
280
     0
102
RTVSPost2010PropOp34
 70
     1
102
RTVSPost2010Prop35
280
     0
102
RTVSPost2010PropOp35
 70
     1
102
RTVSPost2010Prop36
280
     0
102
RTVSPost2010PropOp36
 70
     1
102
RTVSPost2010Prop37
 90
       50
102
RTVSPost2010PropOp37
 70
     1
102
RTVSPost2010Prop38
140
0.0
102
RTVSPost2010PropOp38
 70
     1
102
RTVSPost2010Prop39
140
1.0
102
RTVSPost2010PropOp39
 70
     1
102
RTVSPost2010Prop40
 90
        0
102
RTVSPost2010PropOp40
 70
     1
102
RTVSPost2010Prop41ColorIndex
 90
       18
102
RTVSPost2010Prop41ColorRGB
 90
        0
102
RTVSPost2010PropOp41
 70
     1
102
RTVSPost2010Prop42
 90
       50
102
RTVSPost2010PropOp42
 70
     1
102
RTVSPost2010Prop43
 90
        3
102
RTVSPost2010PropOp43
 70
     1
102
RTVSPost2010Prop44ColorIndex
 90
        5
102
RTVSPost2010Prop44ColorRGB
 90
      255
102
RTVSPost2010PropOp44
 70
     1
102
RTVSPost2010Prop45
280
     0
102
RTVSPost2010PropOp45
 70
     1
102
RTVSPost2010Prop46
 90
       50
102
RTVSPost2010PropOp46
 70
     1
102
RTVSPost2010Prop47
 90
       50
102
RTVSPost2010PropOp47
 70
     1
102
RTVSPost2010Prop48
 90
       50
102
RTVSPost2010PropOp48
 70
     1
102
RTVSPost2010Prop49
280
     0
102
RTVSPost2010PropOp49
 70
     1
102
RTVSPost2010Prop50
 90
       50
102
RTVSPost2010PropOp50
 70
     1
102
RTVSPost2010Prop51ColorIndex
 90
      256
102
RTVSPost2010Prop51ColorRGB
 90
-16777216
102
RTVSPost2010PropOp51
 70
     0
102
RTVSPost2010Prop52
140
1.0
102
RTVSPost2010PropOp52
 70
     0
102
RTVSPost2010Prop53
 90
        2
102
RTVSPost2010PropOp53
 70
     1
102
RTVSPost2010Prop54
  1
strokes_ogs.tif
102
RTVSPost2010PropOp54
 70
     1
102
RTVSPost2010Prop55
280
     0
102
RTVSPost2010PropOp55
 70
     1
102
RTVSPost2010Prop56
140
1.0
102
RTVSPost2010PropOp56
 70
     1
102
RTVSPost2010Prop57
140
1.0
102
RTVSPost2010PropOp57
 70
     1
  0
XRECORD
  5
614
102
{ACAD_REACTORS
330
613
102
}
330
613
100
AcDbXrecord
280
     1
102
RTVSPropertyOp0
 70
     1
102
RTVSPropertyOp1
 70
     1
102
RTVSPropertyOp2
 70
     1
102
RTVSPropertyOp3
 70
     1
102
RTVSPropertyOp4
 70
     1
102
RTVSPropertyOp5
 70
     1
102
RTVSPropertyOp6
 70
     1
102
RTVSPropertyOp7
 70
     1
102
RTVSPropertyOp8
 70
     1
102
RTVSPropertyOp9
 70
     1
102
RTVSPropertyOp10
 70
     1
102
RTVSPropertyOp11
 70
     1
102
RTVSPropertyOp12
 70
     1
102
RTVSPropertyOp13
 70
     1
102
RTVSPropertyOp14
 70
     1
102
RTVSPropertyOp15
 70
     1
102
RTVSPropertyOp16
 70
     1
102
RTVSPropertyOp17
 70
     1
102
RTVSPropertyOp18
 70
     1
102
RTVSPropertyOp19
 70
     1
102
RTVSPropertyOp20
 70
     1
102
RTVSPropertyOp21
 70
     1
102
RTVSPropertyOp22
 70
     1
102
RTVSPropertyOp23
 70
     1
102
RTVSPropertyOp24
 70
     1
102
RTVSPropertyOp25
 70
     1
102
RTVSPropertyOp26
 70
     1
102
RTVSPropertyOp27
 70
     1
102
RTVSPropertyOp28
 70
     1
102
RTVSPropertyOp29
 70
     1
102
RTVSPropertyOp30
 70
     1
102
RTVSPropertyOp31
 70
     1
102
RTVSPropertyOp32
 70
     1
102
RTVSPropertyOp33
 70
     1
102
RTVSPropertyOp34
 70
     1
102
RTVSPropertyOp35
 70
     1
102
RTVSPropertyOp36
 70
     1
102
RTVSPropertyOp37
 70
     1
102
RTVSPropertyOp38
 70
     1
102
RTVSPropertyOp39
 70
     1
102
RTVSPropertyOp40
 70
     1
102
RTVSPropertyOp41
 70
     1
102
RTVSPropertyOp42
 70
     1
102
RTVSPropertyOp43
 70
     1
102
RTVSPropertyOp44
 70
     1
102
RTVSPropertyOp45
 70
     1
102
RTVSPropertyOp46
 70
     1
102
RTVSPropertyOp47
 70
     1
102
RTVSPropertyOp48
 70
     1
102
RTVSPropertyOp49
 70
     1
102
RTVSPropertyOp50
 70
     1
102
RTVSPropertyOp51
 70
     0
102
RTVSPropertyOp52
 70
     0
102
RTVSPropertyOp53
 70
     1
102
RTVSPropertyOp54
 70
     1
102
RTVSPropertyOp55
 70
     1
102
RTVSPropertyOp56
 70
     1
102
RTVSPropertyOp57
 70
     1
102
RTVSPost2010Prop28
280
     0
102
RTVSPost2010PropOp28
 70
     1
102
RTVSPost2010Prop29
280
     1
102
RTVSPost2010PropOp29
 70
     1
102
RTVSPost2010Prop30
280
     1
102
RTVSPost2010PropOp30
 70
     1
102
RTVSPost2010Prop31
280
     0
102
RTVSPost2010PropOp31
 70
     1
102
RTVSPost2010Prop32
280
     0
102
RTVSPost2010PropOp32
 70
     1
102
RTVSPost2010Prop33
280
     0
102
RTVSPost2010PropOp33
 70
     1
102
RTVSPost2010Prop34
280
     0
102
RTVSPost2010PropOp34
 70
     1
102
RTVSPost2010Prop35
280
     0
102
RTVSPost2010PropOp35
 70
     1
102
RTVSPost2010Prop36
280
     0
102
RTVSPost2010PropOp36
 70
     1
102
RTVSPost2010Prop37
 90
       50
102
RTVSPost2010PropOp37
 70
     1
102
RTVSPost2010Prop38
140
0.0
102
RTVSPost2010PropOp38
 70
     1
102
RTVSPost2010Prop39
140
1.0
102
RTVSPost2010PropOp39
 70
     1
102
RTVSPost2010Prop40
 90
        0
102
RTVSPost2010PropOp40
 70
     1
102
RTVSPost2010Prop41ColorIndex
 90
       18
102
RTVSPost2010Prop41ColorRGB
 90
        0
102
RTVSPost2010PropOp41
 70
     1
102
RTVSPost2010Prop42
 90
       50
102
RTVSPost2010PropOp42
 70
     1
102
RTVSPost2010Prop43
 90
        3
102
RTVSPost2010PropOp43
 70
     1
102
RTVSPost2010Prop44ColorIndex
 90
        5
102
RTVSPost2010Prop44ColorRGB
 90
      255
102
RTVSPost2010PropOp44
 70
     1
102
RTVSPost2010Prop45
280
     0
102
RTVSPost2010PropOp45
 70
     1
102
RTVSPost2010Prop46
 90
       50
102
RTVSPost2010PropOp46
 70
     1
102
RTVSPost2010Prop47
 90
       50
102
RTVSPost2010PropOp47
 70
     1
102
RTVSPost2010Prop48
 90
       50
102
RTVSPost2010PropOp48
 70
     1
102
RTVSPost2010Prop49
280
     0
102
RTVSPost2010PropOp49
 70
     1
102
RTVSPost2010Prop50
 90
       50
102
RTVSPost2010PropOp50
 70
     1
102
RTVSPost2010Prop51ColorIndex
 90
      256
102
RTVSPost2010Prop51ColorRGB
 90
-16777216
102
RTVSPost2010PropOp51
 70
     0
102
RTVSPost2010Prop52
140
1.0
102
RTVSPost2010PropOp52
 70
     0
102
RTVSPost2010Prop53
 90
        2
102
RTVSPost2010PropOp53
 70
     1
102
RTVSPost2010Prop54
  1
strokes_ogs.tif
102
RTVSPost2010PropOp54
 70
     1
102
RTVSPost2010Prop55
280
     0
102
RTVSPost2010PropOp55
 70
     1
102
RTVSPost2010Prop56
140
1.0
102
RTVSPost2010PropOp56
 70
     1
102
RTVSPost2010Prop57
140
1.0
102
RTVSPost2010PropOp57
 70
     1
  0
XRECORD
  5
616
102
{ACAD_REACTORS
330
615
102
}
330
615
100
AcDbXrecord
280
     1
102
RTVSPropertyOp0
 70
     1
102
RTVSPropertyOp1
 70
     1
102
RTVSPropertyOp2
 70
     1
102
RTVSPropertyOp3
 70
     1
102
RTVSPropertyOp4
 70
     1
102
RTVSPropertyOp5
 70
     1
102
RTVSPropertyOp6
 70
     1
102
RTVSPropertyOp7
 70
     1
102
RTVSPropertyOp8
 70
     1
102
RTVSPropertyOp9
 70
     1
102
RTVSPropertyOp10
 70
     1
102
RTVSPropertyOp11
 70
     1
102
RTVSPropertyOp12
 70
     1
102
RTVSPropertyOp13
 70
     1
102
RTVSPropertyOp14
 70
     1
102
RTVSPropertyOp15
 70
     1
102
RTVSPropertyOp16
 70
     1
102
RTVSPropertyOp17
 70
     1
102
RTVSPropertyOp18
 70
     1
102
RTVSPropertyOp19
 70
     1
102
RTVSPropertyOp20
 70
     1
102
RTVSPropertyOp21
 70
     1
102
RTVSPropertyOp22
 70
     1
102
RTVSPropertyOp23
 70
     1
102
RTVSPropertyOp24
 70
     1
102
RTVSPropertyOp25
 70
     1
102
RTVSPropertyOp26
 70
     1
102
RTVSPropertyOp27
 70
     1
102
RTVSPropertyOp28
 70
     1
102
RTVSPropertyOp29
 70
     1
102
RTVSPropertyOp30
 70
     1
102
RTVSPropertyOp31
 70
     1
102
RTVSPropertyOp32
 70
     1
102
RTVSPropertyOp33
 70
     1
102
RTVSPropertyOp34
 70
     1
102
RTVSPropertyOp35
 70
     1
102
RTVSPropertyOp36
 70
     1
102
RTVSPropertyOp37
 70
     1
102
RTVSPropertyOp38
 70
     1
102
RTVSPropertyOp39
 70
     1
102
RTVSPropertyOp40
 70
     1
102
RTVSPropertyOp41
 70
     1
102
RTVSPropertyOp42
 70
     1
102
RTVSPropertyOp43
 70
     1
102
RTVSPropertyOp44
 70
     1
102
RTVSPropertyOp45
 70
     1
102
RTVSPropertyOp46
 70
     1
102
RTVSPropertyOp47
 70
     1
102
RTVSPropertyOp48
 70
     1
102
RTVSPropertyOp49
 70
     1
102
RTVSPropertyOp50
 70
     1
102
RTVSPropertyOp51
 70
     0
102
RTVSPropertyOp52
 70
     0
102
RTVSPropertyOp53
 70
     1
102
RTVSPropertyOp54
 70
     1
102
RTVSPropertyOp55
 70
     1
102
RTVSPropertyOp56
 70
     1
102
RTVSPropertyOp57
 70
     1
102
RTVSPost2010Prop28
280
     0
102
RTVSPost2010PropOp28
 70
     1
102
RTVSPost2010Prop29
280
     1
102
RTVSPost2010PropOp29
 70
     1
102
RTVSPost2010Prop30
280
     1
102
RTVSPost2010PropOp30
 70
     1
102
RTVSPost2010Prop31
280
     0
102
RTVSPost2010PropOp31
 70
     1
102
RTVSPost2010Prop32
280
     0
102
RTVSPost2010PropOp32
 70
     1
102
RTVSPost2010Prop33
280
     0
102
RTVSPost2010PropOp33
 70
     1
102
RTVSPost2010Prop34
280
     0
102
RTVSPost2010PropOp34
 70
     1
102
RTVSPost2010Prop35
280
     0
102
RTVSPost2010PropOp35
 70
     1
102
RTVSPost2010Prop36
280
     0
102
RTVSPost2010PropOp36
 70
     1
102
RTVSPost2010Prop37
 90
       50
102
RTVSPost2010PropOp37
 70
     1
102
RTVSPost2010Prop38
140
0.0
102
RTVSPost2010PropOp38
 70
     1
102
RTVSPost2010Prop39
140
1.0
102
RTVSPost2010PropOp39
 70
     1
102
RTVSPost2010Prop40
 90
        0
102
RTVSPost2010PropOp40
 70
     1
102
RTVSPost2010Prop41ColorIndex
 90
       18
102
RTVSPost2010Prop41ColorRGB
 90
        0
102
RTVSPost2010PropOp41
 70
     1
102
RTVSPost2010Prop42
 90
       50
102
RTVSPost2010PropOp42
 70
     1
102
RTVSPost2010Prop43
 90
        3
102
RTVSPost2010PropOp43
 70
     1
102
RTVSPost2010Prop44ColorIndex
 90
        5
102
RTVSPost2010Prop44ColorRGB
 90
      255
102
RTVSPost2010PropOp44
 70
     1
102
RTVSPost2010Prop45
280
     0
102
RTVSPost2010PropOp45
 70
     1
102
RTVSPost2010Prop46
 90
       50
102
RTVSPost2010PropOp46
 70
     1
102
RTVSPost2010Prop47
 90
       50
102
RTVSPost2010PropOp47
 70
     1
102
RTVSPost2010Prop48
 90
       50
102
RTVSPost2010PropOp48
 70
     1
102
RTVSPost2010Prop49
280
     0
102
RTVSPost2010PropOp49
 70
     1
102
RTVSPost2010Prop50
 90
       50
102
RTVSPost2010PropOp50
 70
     1
102
RTVSPost2010Prop51ColorIndex
 90
      256
102
RTVSPost2010Prop51ColorRGB
 90
-16777216
102
RTVSPost2010PropOp51
 70
     0
102
RTVSPost2010Prop52
140
1.0
102
RTVSPost2010PropOp52
 70
     0
102
RTVSPost2010Prop53
 90
        2
102
RTVSPost2010PropOp53
 70
     1
102
RTVSPost2010Prop54
  1
strokes_ogs.tif
102
RTVSPost2010PropOp54
 70
     1
102
RTVSPost2010Prop55
280
     0
102
RTVSPost2010PropOp55
 70
     1
102
RTVSPost2010Prop56
140
1.0
102
RTVSPost2010PropOp56
 70
     1
102
RTVSPost2010Prop57
140
1.0
102
RTVSPost2010PropOp57
 70
     1
  0
ENDSEC
  0
EOF
